<?xml version="1.0" standalone="no"?>
<!DOCTYPE svg PUBLIC "-//W3C//DTD SVG 1.1//EN" "http://www.w3.org/Graphics/SVG/1.1/DTD/svg11.dtd" >
<svg xmlns="http://www.w3.org/2000/svg" xmlns:xlink="http://www.w3.org/1999/xlink" version="1.1">
<metadata>
Created by FontForge 20170924 at Fri Apr  6 15:27:47 2018
 By www-data
Copyright \(c\) 2018 by Letterhend. All rights reserved.
</metadata>
<defs>
<font id="AthaliaScript" horiz-adv-x="277" >
  <font-face 
    font-family="Athalia Script"
    font-weight="400"
    font-stretch="normal"
    units-per-em="1000"
    panose-1="0 0 0 0 0 0 0 0 0 0"
    ascent="800"
    descent="-200"
    x-height="250"
    cap-height="567"
    bbox="-332.23 -455.938 1318 788.684"
    underline-thickness="50"
    underline-position="-100"
    stemh="21"
    stemv="32"
    unicode-range="U+000D-2212"
  />
<missing-glyph horiz-adv-x="185" 
 />
    <glyph glyph-name="t_h" unicode="th" horiz-adv-x="540" 
d="M540 181l14 -10c-54 -112 -113 -224 -156 -277c-60 -74 -184 -65 -157 46c17 67 46 126 66 187c2 6 12 33 2 33c-31 0 -106 -110 -119 -132c-9 -15 -18 -32 -29 -53c-13 -14 -40 -13 -32 8l49 138c-45 -76 -118 -175 -171 -155c-64 23 -30 143 -17 186
c26 86 73 165 105 236c-77 12 -141 -12 -191 -66c-12 -12 -27 1 -20 11s15 19 24 26c58 44 134 63 199 50c25 47 31 63 45 80c12 15 46 29 38 -2l-46 -86c54 -11 96 -10 142 -12c41 77 78 157 161 184c134 47 138 -118 37 -170c-49 -25 -111 -37 -160 -36
c-101 -222 -85 -200 -130 -303c28 43 78 116 126 116c32 0 30 -36 24 -57c-18 -67 -45 -129 -64 -194c-23 -90 63 -83 108 -23c40 53 123 206 152 275zM191 169l87 199c-48 2 -95 4 -141 11c-48 -94 -78 -155 -109 -236c-10 -26 -42 -138 -10 -161c45 -19 128 116 173 187z
M332 388c46 0 105 11 148 35c82 44 70 187 -24 133c-44 -26 -93 -90 -124 -168z" />
    <glyph glyph-name="l_l" unicode="ll" horiz-adv-x="594" 
d="M594 181l16 -7c-72 -130 -169 -247 -283 -274c-53 -13 -109 -2 -128 68c-13 42 -6 89 5 132c-35 -43 -64 -74 -105 -102c-42 -27 -83 -25 -103 13s-18 81 -8 125c17 82 46 159 86 233c32 59 168 288 254 260c26 -8 21 -46 8 -86c-50 -149 -169 -271 -289 -358
c-18 -54 -34 -115 -19 -157c12 -28 32 -35 62 -15c51 37 74 62 121 119c66 166 156 310 288 441c107 92 159 43 90 -85c-74 -143 -202 -253 -328 -348c-17 -46 -28 -92 -28 -139c0 -78 40 -94 86 -85c126 26 224 167 275 265zM267 168c117 78 238 205 301 327
c68 133 14 121 -46 60c-116 -134 -188 -247 -255 -387zM55 213c116 88 212 204 261 333c11 32 17 58 3 66c-90 -38 -220 -300 -264 -399z" />
    <glyph glyph-name="r_r" unicode="rr" horiz-adv-x="511" 
d="M511 181l15 -8c-43 -77 -88 -171 -136 -205c-18 -13 -38 -15 -57 -5c-18 9 -24 26 -25 45c-2 32 8 61 21 89c6 13 6 21 -6 31c-11 10 -18 15 -26 35c-24 -33 -137 -307 -228 -256c-64 36 -16 141 8 190c53 95 -18 89 -25 141l-38 -67l-15 8c34 55 59 106 88 172
c3 6 7 13 13 16c18 6 21 -1 21 -16c-13 -60 -47 -118 -5 -169c19 -24 29 -49 10 -78s-76 -159 -49 -180c68 -54 210 248 234 323c4 15 41 29 30 -9c-4 -17 -7 -33 -9 -49c-1 -17 0 -43 22 -58c12 -8 15 -20 11 -32c-10 -28 -10 -31 -19 -60c-4 -13 -5 -27 -4 -40
c1 -9 7 -22 14 -24c44 -11 125 144 155 206z" />
    <glyph glyph-name="t_t" unicode="tt" horiz-adv-x="376" 
d="M376 181l16 -6c-39 -78 -88 -188 -147 -240c-38 -33 -95 -38 -106 17c-7 33 1 75 4 99c-31 -45 -77 -128 -141 -104c-29 13 -38 40 -40 70c-2 38 8 74 19 111c20 69 87 203 89 207c-75 18 -167 55 -232 -18l-9 -11c-5 -7 -12 -14 -21 -7c-5 3 -1 15 3 20c5 7 10 13 16 19
c72 72 176 38 253 16c4 6 47 98 70 139c4 6 7 13 12 15c6 3 17 7 21 3c5 -5 2 -13 0 -17c-21 -42 -62 -137 -68 -149c48 -15 93 -27 137 -35l125 233c4 8 32 24 39 0c-42 -79 -85 -162 -125 -242c54 -11 164 -22 168 56c0 7 0 13 -5 20c30 23 33 -42 9 -69
c-32 -35 -85 -42 -180 -25c-43 -87 -86 -173 -102 -269c-2 -13 -5 -36 -5 -55c0 -57 36 -31 60 -9c52 49 116 183 140 231zM242 291c-46 8 -87 20 -135 33c-1 -4 -82 -154 -101 -235c-8 -30 -11 -63 -9 -94c3 -43 28 -51 62 -25c48 42 85 105 110 161c24 55 44 104 73 160z
" />
    <glyph glyph-name="F_l" unicode="Fl" horiz-adv-x="879" 
d="M511 143c-30 -15 -73 -10 -91 -6c-34 -83 -81 -146 -127 -190c-93 -89 -270 -114 -292 46c-1 10 -1 19 -1 28c0 61 22 116 65 162c22 24 50 39 81 45c50 10 107 -19 82 -94c50 33 120 42 153 34c38 89 68 155 122 217c-101 55 -270 74 -354 -72c-5 -8 -9 -17 -18 -10
c-4 3 -6 15 -3 21c18 42 49 74 88 96c42 23 86 34 129 33c150 -4 212 -83 301 -111c140 205 261 264 299 229c76 -68 -76 -280 -264 -260c-35 -54 -98 -164 -132 -274c-16 -49 -49 -188 19 -198c80 -12 220 160 311 342l16 -6c-137 -267 -252 -360 -325 -355
c-105 7 -86 149 -67 218c37 124 79 197 134 286c-26 10 -60 22 -99 46c-53 -60 -74 -128 -113 -212c21 -8 64 -6 80 4c17 10 21 -9 6 -19zM372 147c-55 17 -133 -25 -161 -65c-26 -31 -49 -26 -34 9c8 21 19 42 24 64c9 43 -21 68 -62 55c-7 -3 -15 -6 -22 -11
c-57 -32 -92 -103 -92 -172c0 -164 135 -143 226 -62c52 47 89 108 121 182zM691 328c171 -17 291 176 250 225c-21 25 -127 -42 -250 -225z" />
    <glyph glyph-name="T_h" unicode="Th" horiz-adv-x="966" 
d="M966 181l15 -8c-52 -110 -173 -309 -253 -355c-46 -27 -86 -1 -89 49c-6 94 38 174 77 254c32 78 -19 39 -49 13c-62 -52 -105 -118 -154 -235c-7 -21 -51 -29 -44 0c48 175 134 355 215 470c-30 12 -66 24 -95 35c-114 -145 -158 -402 -323 -489
c-117 -62 -269 29 -266 156c0 70 42 143 103 174c96 50 187 -58 106 -125c-31 -26 -25 2 -4 17c52 76 -42 120 -97 86s-90 -89 -87 -150c4 -110 141 -197 228 -131c139 103 221 416 316 472c-154 53 -327 65 -433 -51c-20 -21 -17 3 -13 9c170 176 407 92 587 25
c42 61 133 162 221 198c111 46 211 -55 122 -154c-73 -81 -197 -113 -319 -86c-66 -86 -117 -199 -157 -289c29 39 64 69 85 88c68 57 131 41 92 -61c-31 -80 -80 -140 -78 -220c1 -37 24 -55 50 -37c84 58 182 228 244 345zM749 381c87 -27 215 -15 284 63
c66 74 18 175 -83 127c-66 -32 -154 -113 -201 -190z" />
    <glyph glyph-name="F_r" unicode="Fr" horiz-adv-x="868" 
d="M320 -73c-147 -112 -320 -40 -319 156c2 102 76 192 186 191c63 0 127 -45 108 -110c20 11 40 16 61 19l36 3c10 0 23 -1 35 -3c18 45 36 93 55 139c21 49 48 107 92 142c3 3 6 6 10 8c-21 2 -44 7 -66 7c-150 -1 -245 -5 -319 -101c-10 -13 -10 -13 -28 -6
c40 73 93 109 177 125c77 16 157 11 236 1c71 -8 142 -14 212 -19c61 -2 111 20 141 71c5 7 7 16 12 22c10 6 25 5 22 -10c-9 -32 -28 -57 -55 -74c-37 -24 -79 -33 -126 -33c-44 1 -98 3 -143 7c-49 6 -82 -63 -98 -94c-28 -63 -57 -129 -82 -192l-1 -2
c25 -6 50 -13 71 -16c31 -5 55 17 73 43l17 32l50 99c6 11 15 12 25 8c11 -4 12 -12 8 -23l-25 -74c-8 -29 -5 -56 15 -80c19 -21 23 -45 13 -72c-12 -30 -25 -59 -36 -88c-5 -13 -11 -33 -12 -50c-2 -36 18 -41 39 -31c49 23 70 67 91 107c29 53 53 117 73 155
c0 0 2 -2 15 -8c-19 -38 -45 -101 -74 -154c-24 -46 -54 -94 -103 -113c-29 -11 -59 -6 -74 33c-10 25 -6 51 5 75c12 26 25 53 39 79c12 24 12 45 -9 67c-13 14 -29 25 -32 46c-29 -46 -54 -76 -101 -68c-22 3 -47 11 -73 18l-19 -48c-28 -70 -67 -133 -122 -184zM278 108
c-13 -18 -45 -11 -34 14c30 70 19 126 -61 126c-85 0 -151 -97 -155 -167c3 -182 151 -230 266 -122c56 53 92 120 120 191l8 18c-58 6 -119 -14 -144 -60z" />
    <glyph glyph-name=".notdef" horiz-adv-x="185" 
 />
    <glyph glyph-name="NULL" horiz-adv-x="0" 
 />
    <glyph glyph-name="NULL" horiz-adv-x="0" 
 />
    <glyph glyph-name="CR" unicode="&#xd;" horiz-adv-x="185" 
 />
    <glyph glyph-name="space" unicode=" " horiz-adv-x="185" 
 />
    <glyph glyph-name="f" unicode="f" horiz-adv-x="204" 
d="M204 181l15 -8c-39 -81 -108 -114 -173 -70c1 -34 2 -58 1 -88c-3 -89 -16 -182 -50 -267c-13 -29 -39 -79 -76 -73c-16 3 -22 15 -27 30c-11 45 -8 91 -2 136c16 102 45 201 90 297c38 94 84 186 146 271c13 21 30 41 49 59c8 8 21 14 34 17c22 5 33 -7 32 -29
c0 -31 -15 -59 -29 -86c-44 -85 -106 -157 -182 -215c49 -88 135 -59 172 26zM18 127l-18 -45c-39 -110 -77 -220 -83 -337c-3 -12 -2 -25 -1 -38c16 -50 53 25 61 40c40 107 51 218 50 329c-1 15 -1 37 -9 51zM213 465c-74 -82 -122 -177 -166 -275c43 40 90 86 123 138
c27 42 70 133 43 137z" />
    <glyph glyph-name="d" unicode="d" horiz-adv-x="380" 
d="M380 181l14 -10c-36 -70 -119 -256 -200 -245c-63 8 -80 75 -82 126v23l-35 -39c-51 -57 -113 -54 -114 32c3 51 20 96 54 134c38 40 94 39 123 12c41 119 96 226 180 321c73 84 166 106 148 -34c-20 -147 -208 -307 -303 -385c-10 -22 -18 -90 -13 -117
c6 -37 29 -51 47 -55c69 -14 174 227 181 237zM171 147c123 111 289 249 269 418c-18 36 -67 -20 -81 -36c-92 -111 -147 -246 -188 -382zM57 43l55 58c7 17 14 55 16 71c2 18 -2 31 -17 39c-38 17 -78 -76 -89 -102c-13 -29 -28 -133 35 -66z" />
    <glyph glyph-name="k" unicode="k" horiz-adv-x="346" 
d="M346 181l16 -6c-52 -103 -114 -203 -174 -249c-49 -39 -112 -26 -131 30c-11 35 -11 72 -8 105c-19 -20 -38 -47 -49 -70c-5 -10 -2 -17 -15 -14s-18 10 -16 24c8 73 20 146 41 218c39 118 92 230 168 331c28 38 48 66 90 91c117 61 118 -53 82 -134
c-65 -147 -180 -254 -313 -337c-13 -38 -25 -80 -28 -114c27 39 63 73 96 108c15 16 63 61 82 37c5 -8 4 -23 1 -32c-25 -54 -71 -74 -104 -78c-6 -45 0 -226 92 -158c74 61 150 206 170 248zM45 201c100 48 223 189 286 319c26 54 12 144 -32 105c-22 -19 -42 -41 -60 -65
c-56 -72 -98 -154 -141 -234c-20 -39 -27 -56 -53 -125zM168 187c-29 -10 -56 -48 -78 -74c41 3 86 61 78 74z" />
    <glyph glyph-name="b" unicode="b" horiz-adv-x="341" 
d="M5 38c35 48 89 126 147 145c90 29 70 -97 49 -152c65 30 118 107 140 150l14 -10c-42 -83 -96 -137 -158 -164c-26 -58 -62 -108 -118 -140c-18 -11 -38 -17 -59 -19c-27 -2 -39 20 -33 47c15 71 113 102 159 123c20 43 36 88 35 136c-1 80 -173 -132 -188 -157
c-1 -2 -3 -6 -5 -7c-14 -3 -33 -9 -29 13c31 198 104 376 219 535c46 63 130 145 179 81c77 -101 -193 -392 -321 -457c-15 -34 -26 -94 -31 -124zM57 228l-16 -40c155 96 333 319 304 398c-22 59 -86 -1 -106 -29c-74 -102 -135 -212 -182 -329zM134 -9
c-39 -14 -76 -36 -105 -61c-23 -20 -40 -83 5 -57c47 27 74 68 100 118z" />
    <glyph glyph-name="s" unicode="s" horiz-adv-x="219" 
d="M219 181l15 -8c-45 -89 -128 -205 -230 -210c-32 -1 -50 4 -73 32c10 17 16 8 29 -2c20 -17 41 -10 53 31c23 75 -29 144 -15 213c5 21 21 28 35 19c4 -3 9 -11 7 -15c-27 -82 54 -156 -5 -253c78 29 135 97 184 193z" />
    <glyph glyph-name="p" unicode="p" horiz-adv-x="328" 
d="M328 181l15 -8c-36 -63 -110 -85 -153 -88c-27 -53 -53 -101 -113 -105c-25 -1 -39 20 -35 45c13 63 78 78 113 80c22 35 40 92 29 134c-136 -45 -325 -532 -361 -652c-14 -26 -32 -10 -29 0c53 234 91 373 225 633c5 10 16 19 24 9c17 -21 -92 -230 -120 -342
c52 118 148 331 236 371c63 29 74 -58 38 -149c58 4 111 35 131 72zM146 84c-71 -4 -100 -74 -75 -83c26 -9 54 42 75 83z" />
    <glyph glyph-name="x" unicode="x" horiz-adv-x="299" 
d="M14 171l-15 8l17 34c13 26 33 49 64 46c40 -3 48 -48 51 -104c38 36 73 77 90 136c4 20 24 23 22 4c-15 -71 -68 -125 -108 -166c5 -33 7 -67 17 -98c22 -68 75 19 87 41c27 46 59 108 60 109l15 -8c-21 -37 -40 -78 -60 -113c-23 -39 -56 -98 -104 -70
c-48 30 -45 77 -49 119c-46 -36 -138 -95 -149 -188c-14 -2 -19 3 -18 16c14 97 110 150 165 197l-4 56c-6 53 -34 63 -62 15c-4 -8 -10 -19 -19 -34z" />
    <glyph glyph-name="t" unicode="t" horiz-adv-x="210" 
d="M210 181l15 -8c-50 -97 -121 -253 -204 -210c-38 20 -60 63 -52 107c14 89 51 170 95 248l31 54c-45 15 -88 30 -134 33c-35 2 -70 -5 -104 -17c-17 -6 -42 -26 -55 -39c-11 -10 -22 -2 -18 9c25 30 55 47 90 56c62 14 122 6 181 -12c15 -5 39 -12 48 -12
c9 14 16 24 24 38l57 96c8 16 37 15 28 -6c-13 -30 -28 -59 -42 -88l-28 -53c46 -13 89 -25 133 -9c12 5 24 16 31 27c8 13 12 17 24 7c-5 -21 -21 -40 -40 -47c-42 -16 -79 -9 -122 -1c-11 2 -21 5 -33 8c-51 -94 -104 -186 -129 -291c-4 -16 -4 -35 -2 -52
c2 -22 17 -36 37 -43c66 -23 140 156 169 205z" />
    <glyph glyph-name="g" unicode="g" horiz-adv-x="305" 
d="M305 181l15 -8c-52 -99 -137 -179 -241 -208c-24 -48 -64 -140 -117 -199c-27 -31 -56 -66 -94 -73c-47 -6 -73 21 -65 68c7 36 24 67 49 93c45 48 99 83 159 110c8 3 17 11 20 19c14 30 25 61 39 97c-24 -21 -58 -56 -86 -40c-34 19 -15 81 -5 105c11 29 30 53 62 70
c35 18 61 9 80 -28c10 21 18 33 28 49c13 17 54 26 43 -6l-104 -240c81 24 167 94 217 191zM15 -58c-12 -2 -29 -9 -36 -13c-53 -31 -104 -65 -138 -119c-14 -23 -21 -47 -17 -74c10 -46 58 -25 76 1c21 27 41 55 58 85c21 38 38 80 57 120zM-4 51c36 3 90 75 106 102
c7 13 -5 43 -18 50c-16 10 -29 -2 -40 -11c-35 -31 -70 -97 -48 -141z" />
    <glyph glyph-name="l" unicode="l" horiz-adv-x="293" 
d="M293 181l14 -10c-47 -79 -143 -310 -237 -277c-35 12 -56 40 -72 73c-21 46 -19 94 -13 143c12 87 44 167 85 244c38 72 78 143 129 207c18 21 39 42 61 59c33 24 66 7 72 -33c5 -31 -5 -60 -17 -87c-59 -132 -142 -244 -263 -327c-12 -9 -19 -19 -22 -33
c-11 -51 -17 -102 -6 -153c3 -16 7 -32 17 -46c88 -125 215 179 252 240zM251 563c-70 -89 -128 -189 -176 -291c-12 -25 -21 -51 -32 -79c5 2 7 2 8 3c110 84 195 188 247 317c26 66 9 122 -47 50z" />
    <glyph glyph-name="i" unicode="i" horiz-adv-x="180" 
d="M180 181l15 -8c-31 -64 -79 -144 -113 -172c-35 -29 -71 -28 -92 5c-26 37 -22 89 -9 127c10 33 27 63 42 94c3 6 7 14 14 18c6 3 15 5 21 2c4 -1 7 -13 5 -18c-12 -31 -27 -61 -36 -92c-12 -36 -39 -199 43 -123c50 46 109 165 110 167zM104 360c5 -8 -19 -35 -32 -47
c-3 -2 -11 -2 -14 0c-12 12 6 41 14 50c10 11 22 11 32 -3z" />
    <glyph glyph-name="r" unicode="r" horiz-adv-x="268" 
d="M14 171l-15 8l78 153c6 11 15 12 25 8c11 -4 12 -12 8 -23l-25 -74c-8 -29 -5 -56 15 -80c19 -21 23 -45 13 -72c-12 -30 -25 -59 -36 -88c-5 -13 -11 -33 -12 -50c-2 -36 18 -41 39 -31c49 23 70 67 91 107c29 53 53 114 73 152c0 0 2 -2 15 -8
c-19 -38 -45 -98 -74 -151c-24 -46 -54 -94 -103 -113c-29 -11 -59 -6 -74 33c-10 25 -6 51 5 75c12 26 25 53 39 79c12 24 12 45 -9 67c-13 14 -29 25 -32 47z" />
    <glyph glyph-name="u" unicode="u" horiz-adv-x="360" 
d="M360 181l15 -8c-38 -68 -92 -178 -163 -254c-30 -29 -70 -21 -91 16c-19 32 -17 68 -9 103c6 26 3 17 15 54c-23 -30 -50 -59 -78 -82c-17 -14 -38 -19 -58 -8c-20 10 -29 29 -29 51c0 69 29 126 71 178c8 10 18 12 31 2c-29 -66 -70 -127 -70 -196c1 -26 18 -34 37 -17
c25 21 48 44 68 69c35 48 67 98 101 147c8 13 18 21 34 14c3 -2 6 -13 4 -18c-8 -20 -16 -40 -25 -60c-29 -66 -50 -105 -63 -177c-4 -19 -2 -41 3 -60c6 -22 24 -25 40 -11c66 55 164 250 167 257z" />
    <glyph glyph-name="w" unicode="w" horiz-adv-x="374" 
d="M374 181l15 -8c-44 -87 -104 -160 -168 -124c-9 -14 -23 -40 -35 -58c-14 -20 -29 -41 -47 -58c-28 -28 -56 -19 -66 20c-11 48 -6 93 2 138c-18 -32 -38 -61 -62 -87c-10 -11 -26 -19 -38 -9c-30 27 -14 86 -3 117c14 42 34 82 52 122c4 7 9 14 15 17c5 3 14 3 21 1
c2 -1 3 -12 1 -17c-20 -74 -73 -152 -66 -227c44 52 71 111 102 169c5 11 11 19 24 14s11 -14 8 -25c-12 -44 -25 -88 -33 -133c-1 -3 -17 -128 30 -86c36 33 54 70 75 112c-41 55 -39 119 -25 183c8 36 21 71 35 106c6 15 16 30 28 42c24 25 56 18 70 -14
c33 -75 -40 -229 -73 -294l-8 -17c68 -41 145 113 146 116zM275 384c-45 -33 -101 -234 -62 -299l15 34c32 73 90 193 47 265z" />
    <glyph glyph-name="j" unicode="j" horiz-adv-x="176" 
d="M176 181l14 -10c-51 -116 -117 -248 -251 -280c-20 -59 -49 -120 -96 -160c-40 -33 -113 -59 -126 14c-5 89 119 155 190 166c26 84 72 256 126 326c11 13 23 11 38 0c-59 -96 -89 -207 -125 -318c107 14 189 177 230 262zM-100 -112c-51 -10 -107 -44 -136 -80
c-11 -14 -20 -32 -24 -50c-2 -48 31 -50 60 -29c52 38 80 96 100 159zM115 364c6 -8 -17 -35 -29 -47c-3 -2 -11 -2 -14 0c-13 12 4 41 11 50c9 11 21 11 32 -3z" />
    <glyph glyph-name="z" unicode="z" horiz-adv-x="318" 
d="M14 171l-15 8c28 60 54 91 77 99c37 15 83 7 96 -32c4 -12 5 -26 4 -40c-5 -35 -21 -65 -45 -91c-17 -17 -35 -34 -51 -52c-5 -6 -11 -17 -9 -25c7 -38 21 -53 26 -116c101 30 172 162 221 259l16 -6c-67 -136 -135 -247 -237 -273c-3 -36 -4 -69 -10 -102
c-12 -70 -38 -136 -82 -192c-36 -46 -86 -69 -144 -63c-43 4 -73 36 -78 79c-8 57 14 105 51 145c66 73 143 117 227 144c0 38 -8 75 -24 110c-11 26 -8 44 13 63c17 16 32 35 47 53c20 23 33 52 37 82c0 10 -1 19 -4 26c-12 30 -55 8 -70 -7c-12 -12 -27 -32 -46 -69z
M62 -112c-70 -16 -154 -69 -204 -128c-37 -45 -81 -155 -16 -191c38 -22 98 10 120 39c39 51 67 110 82 173c9 34 12 70 18 107z" />
    <glyph glyph-name="n" unicode="n" horiz-adv-x="367" 
d="M148 25c-12 -34 -27 -113 30 -93c62 22 167 214 189 249l14 -10c-41 -71 -144 -265 -223 -256c-68 7 -66 100 -48 144c24 56 74 128 62 135c-55 -32 -126 -122 -171 -167c-6 -7 -13 -12 -21 -15c-17 -8 -35 5 -30 23c14 47 30 94 46 141c4 10 11 17 24 13s14 -15 11 -27
c-4 -12 -39 -96 -33 -102c36 40 152 168 206 153c49 -32 -33 -120 -56 -188z" />
    <glyph glyph-name="y" unicode="y" horiz-adv-x="346" 
d="M29 20c36 26 62 65 87 101c37 54 68 112 101 168c16 20 36 -7 15 -41c-53 -110 -91 -233 -129 -352c121 43 228 252 243 285c3 -2 12 -4 16 -6c-81 -155 -158 -263 -267 -303c-23 -63 -51 -134 -95 -186c-45 -51 -90 -100 -154 -61c-30 19 -42 50 -35 84
c11 56 49 91 96 119c42 25 103 43 150 55c25 60 44 140 65 210c-16 -18 -30 -38 -47 -55c-16 -16 -32 -32 -51 -43c-26 -16 -49 -4 -56 26c-8 37 -2 73 10 108c17 44 39 87 59 130c3 6 7 14 13 16c7 3 18 4 25 2c10 -4 9 -14 4 -23c-14 -26 -27 -52 -42 -78
c-22 -36 -79 -208 -8 -156zM54 -136c-40 -15 -88 -28 -127 -45c-29 -13 -54 -33 -71 -60c-11 -17 -19 -35 -24 -54c-7 -27 3 -52 22 -63c83 -47 185 167 200 222z" />
    <glyph glyph-name="q" unicode="q" horiz-adv-x="382" 
d="M382 181l15 -8c-40 -76 -146 -263 -248 -227c10 -119 -16 -239 -75 -339c-9 -15 -21 -29 -35 -40c-27 -23 -60 -11 -68 24c-8 32 -3 64 5 95c20 76 55 146 89 217c36 74 76 147 108 221c-41 -47 -80 -91 -126 -127c-18 -15 -41 -25 -65 -12c-23 14 -25 39 -24 62
c7 100 56 177 140 229c54 34 104 5 116 -68l51 82c6 9 10 19 23 13c12 -6 11 -16 6 -26l-62 -124l-89 -183c108 -56 208 160 239 211zM22 2c48 26 111 108 145 150c12 15 16 39 19 60c3 18 -1 39 -20 49c-20 11 -36 -4 -50 -15c-47 -38 -79 -87 -104 -140
c-12 -26 -58 -138 10 -104zM130 -57c-42 -77 -78 -164 -115 -244c-15 -32 -25 -66 -23 -102c4 -28 19 -32 38 -16c13 13 26 28 35 44c59 96 70 216 65 318z" />
    <glyph glyph-name="o" unicode="o" horiz-adv-x="198" 
d="M198 181l15 -8c-30 -54 -79 -130 -136 -113c-12 -26 -45 -77 -79 -65c-30 11 -46 70 -33 107c7 21 23 46 35 60c-1 8 0 16 0 23c1 25 12 51 23 70c56 91 117 18 101 -63c-8 -43 -27 -90 -40 -116c45 -18 101 82 114 105zM68 86c18 36 30 76 39 114c8 44 -10 116 -61 47
c-41 -61 -32 -133 22 -161zM11 9c18 9 39 33 49 59c-20 9 -34 25 -44 42c-24 -21 -29 -90 -5 -101z" />
    <glyph glyph-name="e" unicode="e" horiz-adv-x="177" 
d="M177 181l15 -8c-18 -36 -89 -167 -158 -173c-11 -1 -22 0 -31 5c-32 15 -46 46 -40 85c9 56 40 102 79 142c27 27 75 25 72 -23c-4 -58 -57 -84 -106 -99c-8 -22 -7 -46 -4 -69c5 -20 16 -24 29 -23c55 3 123 121 144 163zM11 125c34 9 72 44 79 77c5 24 -7 34 -23 16
c-18 -21 -41 -49 -56 -93z" />
    <glyph glyph-name="c" unicode="c" horiz-adv-x="212" 
d="M212 181l15 -8c-47 -93 -96 -154 -158 -172c-15 -4 -31 -4 -48 2c-30 10 -46 32 -48 64c-4 62 18 116 66 159c22 20 49 29 77 26c10 -1 31 -7 26 -18c-28 1 -47 -8 -64 -23c-42 -39 -65 -85 -67 -141c0 -11 2 -22 7 -32c10 -23 26 -23 44 -18c56 15 103 75 150 161z" />
    <glyph glyph-name="v" unicode="v" horiz-adv-x="273" 
d="M273 181l15 -8c-55 -93 -127 -124 -159 -61c-33 -48 -51 -82 -84 -111c-29 -26 -56 -14 -62 23c-7 52 -3 104 15 154c4 12 10 18 23 14c12 -3 13 -12 11 -23c-4 -22 -39 -154 -15 -168c21 4 74 75 101 130c-28 62 -29 319 98 300c27 -4 38 -35 33 -68
c-18 -88 -63 -157 -106 -229c22 -76 104 -7 130 47zM139 160c55 85 89 154 86 224c-2 37 -34 1 -40 -8c-42 -63 -47 -140 -46 -216z" />
    <glyph glyph-name="F" unicode="F" horiz-adv-x="632" 
d="M294 128c42 23 86 24 132 20c18 46 45 128 64 174c21 49 48 107 92 142c3 3 6 6 10 8c-21 2 -44 7 -66 7c-150 -1 -245 -5 -319 -101c-10 -13 -10 -13 -28 -6c40 73 93 109 177 125c77 16 157 11 236 1c71 -8 142 -14 212 -19c61 -2 111 20 141 71c5 7 7 16 12 22
c10 6 25 5 22 -10c-9 -32 -28 -57 -55 -74c-37 -24 -79 -33 -126 -33c-44 1 -98 3 -143 7c-49 6 -82 -63 -98 -94c-28 -63 -63 -162 -88 -225c66 -7 134 9 163 38c8 8 23 -8 12 -16c-48 -38 -112 -47 -182 -39l-21 -51c-29 -70 -67 -133 -122 -184
c-147 -112 -320 -40 -319 156c2 102 76 192 186 191c63 0 127 -45 108 -110zM277 72c-13 -18 -45 -11 -34 14c30 70 19 126 -61 126c-85 0 -151 -97 -155 -167c3 -182 151 -230 266 -122c56 53 92 120 120 191l8 18c-58 6 -119 -14 -144 -60z" />
    <glyph glyph-name="O" unicode="O" horiz-adv-x="481" 
d="M481 181l16 -6c-48 -88 -91 -121 -173 -128c-27 -52 -65 -115 -112 -153c-29 -24 -61 -44 -100 -47c-44 -2 -75 17 -92 58c-40 101 -13 194 21 282c-39 95 -27 190 36 270c46 61 128 86 197 63c68 -22 120 -90 124 -165c6 -89 -17 -171 -48 -252c-5 -11 -9 -22 -15 -37
c81 5 128 80 146 115zM76 193c45 -77 129 -123 211 -126c28 73 47 143 54 218c4 51 0 99 -23 145c-27 54 -62 83 -118 77c-38 -4 -68 -24 -93 -52c-34 -39 -51 -86 -55 -137c-1 -14 -1 -65 9 -85l10 16c22 36 96 140 146 104c-55 -33 -116 -90 -141 -160zM60 158
c-25 -76 -43 -149 -23 -226c18 -70 46 -87 108 -50c65 38 100 96 133 164c-94 1 -155 38 -218 112z" />
    <glyph glyph-name="K" unicode="K" horiz-adv-x="586" 
d="M382 307c165 82 203 139 230 180c15 20 27 44 27 69l-3 35c6 10 24 10 30 -6c7 -20 11 -41 0 -63c-48 -99 -169 -181 -262 -225c-52 -26 -102 -53 -154 -80c-7 -3 -13 -9 -21 -14c23 -6 46 -11 66 -19c44 -20 61 -59 50 -109c-14 -82 -19 -108 -20 -129
c-3 -71 54 -55 108 2c53 56 124 178 153 233l15 -8c-54 -98 -110 -188 -159 -244c-53 -61 -149 -78 -148 10c0 33 10 80 17 144c5 43 -5 73 -41 89c-11 4 -24 7 -36 10c-19 3 -34 -1 -50 -18c-18 -19 -33 -40 -46 -65c-40 -87 -76 -173 -107 -265c-4 -17 -38 -27 -32 -3
c45 148 98 294 170 431l120 226c-51 -34 -104 -67 -156 -105c-35 -25 -85 -86 -77 -127c-15 -7 -29 1 -30 17c-2 21 6 38 18 55c29 41 68 68 110 94c53 33 108 65 156 109l17 18c12 8 22 10 33 2c11 -7 4 -19 0 -28l-164 -308l-2 -6c57 37 123 66 188 98z" />
    <glyph glyph-name="S" unicode="S" horiz-adv-x="632" 
d="M369 228c-40 44 -94 56 -148 56c-136 -1 -221 -122 -216 -243c4 -95 68 -178 146 -211c130 -55 310 -6 356 212c15 73 21 147 32 222c89 46 177 115 200 225c11 55 -3 96 -57 99c-64 2 -113 -63 -138 -113c-35 -63 -46 -135 -53 -202c-38 -16 -87 -32 -122 -45zM489 251
c-6 -75 -17 -148 -33 -225c-37 -183 -196 -226 -310 -172c-66 31 -117 115 -120 196c-4 96 81 207 185 209c46 1 87 -2 120 -47c-7 -5 -14 -9 -21 -13c-30 -20 -58 -44 -72 -78c-4 -14 -8 -37 16 -32c7 52 44 78 87 103c10 -25 16 -89 -15 -122c59 -28 80 89 51 141
c36 12 74 25 112 40zM543 296c14 73 31 152 73 213c18 24 67 87 96 35c11 -21 11 -41 4 -62c-27 -85 -89 -146 -173 -186z" />
    <glyph glyph-name="A" unicode="A" horiz-adv-x="881" 
d="M154 215c53 1 96 -22 90 -79c76 34 170 26 245 1c105 162 191 299 343 384c-161 -1 -359 -104 -387 -235c-19 7 -33 26 -18 61c83 189 448 209 550 186c3 -2 2 -13 -2 -20c-79 -141 -163 -246 -221 -399c-31 -83 -45 -184 -36 -272c1 -9 6 -18 9 -29
c-12 -12 -34 -7 -40 15c-19 77 -6 202 15 272c-60 -28 -128 -16 -182 6c-71 -114 -197 -250 -335 -250c-109 -1 -186 71 -185 176c1 96 49 180 154 183zM479 123c-82 28 -215 30 -269 -45c-17 -13 -35 -4 -25 17c4 14 12 26 16 39c10 44 -8 61 -48 60
c-91 -3 -131 -78 -131 -160c0 -84 54 -161 145 -155c122 8 251 157 312 244zM931 518c-166 -33 -250 -165 -333 -286l-69 -109c49 -22 142 -37 183 10c28 64 55 95 88 157c40 77 87 151 131 228z" />
    <glyph glyph-name="T" unicode="T" horiz-adv-x="607" 
d="M563 369c-38 -85 -72 -171 -107 -257c-29 -70 -67 -133 -122 -184c-147 -112 -322 -41 -321 155c2 102 72 191 182 191c119 0 148 -172 42 -209c-23 -8 -39 8 -42 24c91 -4 89 159 -4 159c-85 0 -147 -97 -151 -167c3 -182 155 -231 270 -123c56 53 88 121 116 192
c22 57 44 115 68 172c21 49 48 107 92 142c3 3 6 6 10 8c-21 2 -44 7 -66 7c-150 -1 -245 -5 -319 -101c-10 -13 -10 -13 -28 -6c40 73 93 109 177 125c77 16 157 11 236 1c71 -8 142 -14 212 -19c61 -2 111 20 141 71c5 7 7 16 12 22c10 6 25 5 22 -10
c-9 -32 -28 -57 -55 -74c-37 -24 -79 -33 -126 -33c-44 1 -96 4 -141 8c-49 6 -82 -63 -98 -94z" />
    <glyph glyph-name="J" unicode="J" horiz-adv-x="700" 
d="M700 181l16 -6c-64 -125 -177 -174 -250 -175c-37 -67 -79 -143 -129 -202c-38 -45 -81 -82 -140 -98c-92 -26 -186 37 -196 133c-10 100 43 203 118 268c82 73 240 92 203 -53c-5 -19 -12 -37 -19 -53c46 26 96 24 126 26c84 177 136 307 236 472c-2 0 -4 1 -5 0
c-69 -46 -147 -68 -224 -94c-83 -29 -152 -71 -138 -168c-52 -4 -33 76 -13 101c27 34 66 55 106 69c57 20 115 39 172 60c52 19 96 52 136 91c5 5 14 9 21 10c15 1 21 -7 17 -21c-2 -7 -4 -13 -7 -18c-99 -195 -155 -320 -251 -499c87 -4 179 77 221 157zM199 -80
c26 24 49 50 67 83c36 69 34 108 12 120c-54 29 -165 -41 -212 -131c-26 -50 -39 -108 -32 -161c12 -90 94 -138 173 -104c35 15 63 39 87 68c53 60 92 134 127 205c-72 3 -120 -23 -162 -76c-18 -25 -53 -19 -60 -4z" />
    <glyph glyph-name="E" unicode="E" horiz-adv-x="521" 
d="M521 181l15 -8c-61 -132 -159 -302 -319 -296c-25 1 -51 8 -74 23c-60 37 -100 112 -88 181c22 119 129 203 242 219c-37 26 -50 60 -45 101c-84 -3 -211 -48 -236 -122c-15 -2 -19 21 -13 32c46 80 170 108 254 109c20 95 132 175 224 134c42 -21 46 -66 6 -89
c-55 -38 -130 -59 -186 -63c-9 -91 27 -95 82 -116c29 -11 10 -21 -12 -15c-93 24 -157 -14 -212 -84c-24 -30 -40 -64 -49 -99c-15 -61 2 -125 41 -161c22 -20 46 -28 71 -29c142 -3 243 176 299 283zM308 423c62 6 125 22 173 64c18 16 10 44 -13 53
c-79 25 -137 -53 -160 -117z" />
    <glyph glyph-name="B" unicode="B" horiz-adv-x="556" 
d="M556 181l16 -6c-31 -65 -79 -88 -130 -105c-1 -83 -39 -175 -146 -202c-49 -12 -83 25 -71 75c10 40 38 67 72 87c34 19 74 33 110 49c1 28 -11 58 -33 82c-18 20 -17 22 5 39c45 34 91 66 132 105c57 58 121 168 101 247c-14 19 -34 8 -55 -10
c-90 -81 -156 -186 -220 -283c-77 -118 -150 -239 -225 -360c-11 -16 -40 -52 -61 -31c42 100 84 218 134 316c41 83 87 164 131 245l14 27c-12 -8 -20 -13 -28 -17c-47 -24 -92 -51 -141 -70c-64 -27 -111 -67 -135 -133c-4 -10 -4 -20 -7 -29c-5 -10 -19 -11 -19 2
c0 8 1 17 4 26c17 54 47 98 99 125c22 12 46 21 69 31c59 25 114 55 164 95c9 7 21 13 30 4c5 -6 6 -19 3 -27c-7 -20 -16 -38 -24 -57c-48 -101 -96 -202 -143 -303c-2 -3 -3 -7 -2 -12c4 5 8 11 11 17c121 158 203 358 368 477c31 12 58 -1 69 -33
c16 -130 -71 -250 -174 -322l-77 -50c23 -21 39 -45 45 -89c70 23 94 55 114 90zM405 57c-51 -21 -98 -39 -132 -79c-9 -12 -17 -27 -21 -42c-11 -42 16 -58 51 -39c58 32 89 92 102 160z" />
    <glyph glyph-name="I" unicode="I" horiz-adv-x="391" 
d="M402 510c-73 -59 -143 -101 -212 -151c-17 -13 -31 -29 -45 -45c-23 -27 -25 -57 -8 -89c-17 -9 -25 0 -31 12c-11 24 -9 47 4 70c20 35 51 60 84 82c77 52 160 98 226 166c5 5 11 11 17 12c17 3 31 -3 24 -21c-85 -174 -153 -358 -246 -529c-31 -58 -103 -177 -169 -186
c-26 -4 -47 6 -46 39c1 16 12 12 18 10c13 -34 37 -28 62 -6c48 44 73 101 99 156l58 124l156 337c3 5 5 10 9 19z" />
    <glyph glyph-name="U" unicode="U" horiz-adv-x="683" 
d="M572 -161c-5 -14 -14 -18 -27 -10c-22 14 -41 31 -47 59c-13 56 -5 111 12 164c14 42 48 143 70 191c-104 -135 -171 -302 -335 -357c-39 -4 -67 18 -73 58c-6 33 -1 65 7 98c24 103 69 198 115 292c30 62 62 124 90 187c-23 -16 -46 -33 -70 -48
c-59 -38 -120 -73 -177 -114c-30 -21 -56 -49 -79 -78c-31 -37 -38 -80 -18 -126c-12 -11 -20 -4 -27 6c-16 25 -15 51 -9 77c14 52 50 89 90 120c38 29 79 54 119 79c68 42 138 82 194 140c11 11 26 12 39 4s8 -21 3 -31c-33 -74 -65 -149 -102 -221
c-47 -94 -94 -187 -127 -286c-9 -31 -14 -64 -16 -96c-2 -40 22 -55 61 -42c152 87 230 255 324 395l167 265c6 11 13 21 21 30c10 11 23 14 33 4c4 -3 2 -17 -1 -24c-70 -145 -142 -289 -211 -434c-31 -65 -54 -133 -63 -204c-1 -13 -2 -26 -2 -39c1 -28 7 -52 39 -59z" />
    <glyph glyph-name="Q" unicode="Q" horiz-adv-x="480" 
d="M458 -125c16 8 27 -10 24 -31c-3 -37 -32 -63 -74 -71c-54 -9 -94 14 -126 54c-17 22 -31 47 -48 73c-37 -29 -72 -54 -117 -56c-33 -1 -59 12 -79 37c-32 39 -34 84 -36 133c-6 145 191 580 369 543c60 -11 77 -95 79 -143c2 -91 -24 -175 -55 -258
c-30 -79 -76 -160 -131 -225c11 -16 56 -164 144 -144c48 11 65 39 50 88zM250 -42c51 68 90 139 117 217c30 83 54 169 44 259c-3 28 -17 99 -50 102c-110 7 -318 -433 -326 -540c-4 -39 4 -75 25 -108c55 -71 141 8 164 38c-39 80 -42 106 -113 120c10 15 25 26 39 25
c32 -3 54 -30 71 -57c10 -17 18 -35 29 -56z" />
    <glyph glyph-name="H" unicode="H" horiz-adv-x="797" 
d="M429 163c60 -13 144 -34 192 -30c45 133 119 268 196 385c14 21 25 58 52 42c-60 -128 -124 -255 -181 -385c-32 -94 -86 -217 -19 -310c-95 12 -78 174 -54 243c-69 3 -130 17 -193 34c-53 -127 -135 -342 -303 -331c-68 5 -119 59 -118 164c1 96 60 183 129 195
c27 5 74 3 82 -44c29 28 95 59 183 45l140 357c-69 -59 -154 -84 -222 -148c-24 -20 -38 -48 -45 -78c-2 -12 -8 -12 -18 -10c-4 22 7 40 16 57c78 118 229 132 309 240c4 5 10 8 16 9c9 1 15 -3 11 -14c-1 -3 -2 -6 -4 -9c-66 -134 -121 -283 -169 -412zM388 149
c-36 12 -149 18 -175 -64c-3 -17 -23 -11 -27 1c-2 42 -14 70 -47 66c-74 -9 -114 -96 -115 -177c-1 -73 32 -142 101 -147c144 -7 225 223 263 321z" />
    <glyph glyph-name="G" unicode="G" horiz-adv-x="606" 
d="M110 -95c-38 -13 -83 -59 -84 -113c-1 -45 33 -94 95 -89c162 12 283 251 328 381c-27 -31 -52 -76 -100 -84c-62 -11 -111 51 -119 122c-6 79 7 149 38 213c-55 -7 -115 -39 -145 -70c-11 -12 -23 -35 -22 -45c-22 2 -24 20 -23 31c5 53 132 100 200 107
c53 83 105 151 202 181c77 24 171 3 135 -85c-48 -117 -235 -112 -293 -118c-20 -54 -42 -121 -46 -178c-1 -55 18 -139 71 -134c45 5 93 75 113 103c17 58 54 182 109 207c24 8 35 -3 30 -26c-16 -75 -64 -132 -91 -164c-49 -166 -174 -465 -384 -465
c-84 3 -125 60 -124 116c1 64 54 175 110 110zM332 360c89 5 238 10 268 112c13 53 -37 63 -71 55c-92 -20 -150 -85 -197 -167zM516 179c24 22 67 108 61 123c-16 5 -46 -75 -61 -123z" />
    <glyph glyph-name="Y" unicode="Y" horiz-adv-x="710" 
d="M62 -255c-62 22 -72 94 -54 134c26 57 74 84 133 93c97 9 172 -37 254 -69c104 120 168 270 238 413c-70 -88 -157 -237 -275 -250c-41 -1 -69 20 -78 60c-8 28 -7 58 3 85c16 44 32 88 53 129c23 47 88 146 94 180c-27 -20 -53 -40 -79 -61c-55 -44 -110 -88 -164 -133
c-37 -33 -70 -70 -91 -116c-8 -18 -11 -35 2 -51c-15 -8 -25 -4 -32 10c-8 17 -4 33 2 50c18 43 48 79 83 109c63 51 128 99 191 150c42 34 84 70 126 105c4 3 9 8 13 8c17 0 32 -7 22 -24c-20 -41 -42 -81 -62 -122c-38 -74 -76 -149 -112 -225c-14 -31 -21 -66 -13 -102
c7 -31 30 -44 60 -32c123 54 241 248 308 348c32 48 60 98 91 146c13 22 37 66 65 45l-27 -51c-61 -124 -121 -249 -183 -373c-44 -87 -87 -173 -146 -251c-17 -22 -36 -42 -55 -66c75 -40 153 -73 239 -68c53 3 100 73 87 95c9 9 26 0 26 -17c2 -42 -45 -87 -94 -99
c-47 -10 -93 -6 -145 9c-38 10 -101 41 -136 58c-60 -42 -119 -90 -190 -112c-53 -18 -102 -23 -154 -5zM372 -120c-64 33 -123 63 -191 69c-54 4 -98 -16 -130 -58c-24 -31 -26 -66 -7 -100c19 -32 52 -40 86 -37c96 9 167 66 242 126z" />
    <glyph glyph-name="N" unicode="N" horiz-adv-x="646" 
d="M275 436c-55 -46 -114 -83 -170 -125c-34 -24 -59 -54 -73 -94c-7 -22 -10 -45 5 -66c-12 -11 -20 -5 -27 5c-13 18 -11 39 -6 60c9 38 32 69 63 93c82 63 168 113 235 190l13 14c18 15 43 5 33 -19c-63 -140 -138 -266 -194 -400c93 142 185 285 303 401
c57 56 102 100 175 121c34 8 89 -10 86 -50c-8 -126 -95 -229 -153 -343c-63 -112 -129 -235 -111 -323c3 -13 12 -26 28 -43c-114 -10 -56 220 -11 295c76 167 187 294 205 409c7 45 -49 25 -80 11c-73 -33 -163 -143 -209 -197c-126 -146 -226 -311 -320 -479
c-22 1 -27 20 -19 48c39 140 156 327 227 492z" />
    <glyph glyph-name="V" unicode="V" horiz-adv-x="686" 
d="M701 173l-15 8c-38 -77 -82 -128 -134 -134c-44 -5 -87 19 -114 91c63 66 136 149 181 230c32 55 100 219 32 278c-33 29 -89 20 -146 -56c-50 -67 -78 -138 -88 -176c-25 -90 -32 -187 -14 -271c-52 -70 -111 -152 -152 -229l-11 -22c-8 74 -11 147 0 220
c15 100 43 197 80 291c17 43 34 86 49 129c7 19 -6 31 -25 26c-7 -2 -13 -7 -17 -12c-24 -24 -47 -49 -71 -72c-58 -57 -117 -112 -175 -168c-33 -33 -62 -69 -77 -114c-4 -13 -5 -29 -4 -43c2 -17 11 -21 27 -15c-8 28 1 53 15 76c18 27 35 55 58 78c67 67 134 138 206 199
c-9 -19 -16 -37 -24 -55c-80 -177 -113 -360 -80 -553c3 -19 14 -44 29 -55c13 -8 13 -2 19 14c37 98 101 185 167 276c28 -52 82 -88 138 -82c67 7 105 56 146 141zM428 168c-9 75 5 161 30 241c31 98 126 281 181 222c41 -44 1 -175 -41 -249c-43 -77 -117 -159 -170 -214
z" />
    <glyph glyph-name="M" unicode="M" horiz-adv-x="833" 
d="M394 435c-80 -97 -147 -204 -211 -313c-28 -46 -54 -92 -79 -140c-14 -25 -23 -53 -34 -80c-7 -16 -19 -25 -36 -23c12 163 153 433 232 570c14 23 26 46 38 71c-68 -49 -151 -73 -208 -136c-46 -55 -66 -93 -66 -160c-37 -17 -32 48 -27 65c25 71 70 125 135 163
c45 26 91 50 136 76c18 11 34 25 52 38c3 2 7 7 11 7c18 2 32 0 23 -21c-31 -61 -63 -121 -94 -183c-33 -70 -72 -140 -99 -211c19 30 37 60 57 90c53 82 106 165 174 236c40 42 84 78 136 105c17 9 38 17 58 19c32 4 50 -13 45 -45c-15 -101 -77 -181 -112 -268
c45 54 196 267 288 206c43 -31 16 -106 1 -143c-27 -62 -58 -124 -88 -185c-34 -71 -67 -142 -84 -220c-3 -10 -3 -22 -4 -33c0 -21 3 -39 28 -44c2 0 4 -3 5 -4c-18 -14 -49 -3 -60 20c-10 21 -14 44 -10 67c13 78 47 148 81 219c34 69 67 139 99 209c22 47 20 73 7 84
c-73 61 -261 -210 -287 -261c-50 -83 -97 -170 -144 -255c-11 -19 -19 -23 -40 -15c5 13 8 26 13 39c48 111 98 221 157 327c39 71 71 145 106 218c48 130 -162 -42 -199 -89z" />
    <glyph glyph-name="R" unicode="R" horiz-adv-x="690" 
d="M690 181l15 -8c-55 -113 -129 -246 -194 -283c-67 -38 -147 -18 -187 59c-31 57 -34 121 -91 158c-26 16 -40 13 -53 -13c-39 -74 -86 -151 -115 -233c-4 -12 -41 -27 -39 -12c14 91 188 454 214 510l69 150c3 5 5 11 8 20l-13 -9c-54 -33 -107 -67 -161 -99
c-36 -22 -70 -44 -94 -80c-17 -26 -29 -53 -16 -87c-14 -7 -22 -1 -27 9c-10 21 -6 42 3 62c17 39 47 68 83 89c34 22 72 39 106 61c37 24 72 51 107 77c8 5 14 13 22 15c20 4 39 -2 32 -25c-18 -50 -37 -100 -57 -149c-19 -46 -40 -90 -59 -136c19 29 37 59 58 87
c44 59 89 117 136 174c50 60 152 142 231 115c24 -8 41 -26 48 -61c37 -184 -113 -359 -289 -429c-47 -18 -94 -28 -144 -27c-3 0 -7 0 -11 -1c49 -33 64 -86 81 -138c18 -58 85 -112 145 -74c73 46 160 213 192 278zM210 146c72 -11 140 -9 205 19c157 71 305 240 258 411
c-3 12 -9 21 -17 26c-45 28 -149 -51 -174 -82c-65 -78 -129 -141 -183 -226c-31 -47 -58 -96 -89 -148z" />
    <glyph glyph-name="D" unicode="D" horiz-adv-x="727" 
d="M727 181l15 -8c-57 -100 -110 -101 -209 -123c-40 -63 -92 -135 -150 -183c-32 -26 -67 -46 -110 -41c-47 6 -68 41 -51 84c60 145 179 145 281 160c66 103 134 222 178 335c13 33 21 68 26 103c3 20 -1 42 -6 63c-42 58 -121 -39 -156 -76c-58 -73 -113 -148 -167 -224
c-81 -116 -150 -239 -218 -363c-11 -21 -21 -44 -32 -65c-3 -7 -5 -15 -11 -18c-8 -4 -18 -3 -28 -4c0 7 -3 15 0 20c55 140 111 279 168 417c32 78 66 156 99 233c2 6 4 11 5 17c-63 -58 -141 -93 -211 -139c-37 -24 -68 -53 -93 -90c-17 -26 -32 -53 -32 -85
c-18 -6 -27 -2 -25 14c3 21 7 44 17 62c29 56 76 94 128 127c54 32 108 63 160 99c26 18 47 44 72 65c7 6 17 12 27 12c14 2 22 -7 19 -22c-2 -13 -5 -26 -10 -38c-43 -111 -92 -220 -133 -331l117 169c53 74 103 151 174 209c25 21 54 39 84 51c45 19 79 -4 89 -51
c7 -34 3 -67 -4 -100c-22 -95 -68 -179 -114 -263c-21 -38 -54 -81 -80 -123c69 9 134 24 181 107zM490 49c-49 -8 -98 -12 -142 -36c-48 -26 -83 -66 -98 -120c-8 -29 11 -50 40 -44c14 2 28 9 39 16c70 47 117 114 161 184z" />
    <glyph glyph-name="W" unicode="W" horiz-adv-x="819" 
d="M819 181l16 -6c-56 -125 -183 -62 -211 23c-28 -42 -58 -83 -83 -125c-42 -69 -77 -142 -101 -219c-5 -16 -6 -33 -10 -55c-13 -9 -27 -4 -29 18c-4 37 -8 74 -11 111c-14 132 7 263 34 390c-24 -42 -49 -83 -71 -126c-45 -85 -87 -171 -131 -257
c-17 -38 -28 -45 -38 -19c-34 88 -41 184 -27 273c17 107 56 206 109 300c4 6 7 13 8 21l-10 -8c-53 -46 -107 -92 -160 -139c-36 -31 -66 -67 -76 -115c-4 -21 -1 -44 -1 -67c-36 -1 -27 74 -22 86c17 45 48 80 83 111c37 31 73 62 110 92c57 46 105 99 145 159
c3 5 5 11 9 13c17 10 33 7 26 -15c-18 -35 -33 -54 -51 -89c-41 -79 -83 -159 -106 -246c-18 -68 -32 -136 -28 -207c2 -34 8 -68 17 -102c19 39 31 64 52 102c62 109 125 218 188 327c14 21 36 55 55 42c-49 -173 -82 -337 -71 -516c2 2 4 2 4 3c42 109 98 193 172 283
c-24 139 7 302 82 417c23 35 50 65 80 87c56 33 110 4 110 -61c0 -57 -20 -110 -44 -161c-46 -103 -132 -195 -194 -287c31 -103 136 -129 175 -38zM632 254c79 84 159 197 198 302c14 37 23 76 17 117c-3 18 -6 36 -25 44c-35 14 -87 -59 -101 -82
c-70 -116 -110 -252 -89 -381z" />
    <glyph glyph-name="C" unicode="C" horiz-adv-x="518" 
d="M518 181l15 -8c-78 -149 -253 -396 -412 -370c-74 13 -103 135 -96 201c9 96 45 183 89 267l39 72c-36 2 -68 -7 -97 -25c-11 -7 -21 -15 -30 -24c-9 -8 -15 -8 -26 1c26 52 104 70 164 67c47 76 97 147 167 205c54 44 149 89 213 49c33 -21 46 -55 30 -91
c-59 -139 -228 -190 -378 -185c-60 -58 -222 -496 -70 -515c160 -20 349 278 392 356zM207 361c126 -13 285 49 334 168c9 21 10 43 -6 62c-31 35 -125 -15 -148 -33c-76 -58 -128 -127 -180 -197z" />
    <glyph glyph-name="L" unicode="L" horiz-adv-x="689" 
d="M223 245c-17 -3 -24 1 -20 16c10 52 79 94 195 104c42 85 98 181 187 207c15 4 32 5 47 2c32 -5 50 -32 43 -62c-22 -92 -161 -138 -244 -156c-57 -129 -101 -268 -191 -372c85 -46 155 -72 216 -69c98 5 187 176 233 266l14 -10c-78 -158 -149 -274 -251 -282
c-78 -6 -157 22 -231 71c-34 -30 -76 -64 -123 -69c-39 -5 -80 16 -93 48c-14 31 -1 68 32 85c59 26 121 7 175 -21c80 103 123 226 182 346c-96 -8 -168 -35 -171 -104zM437 372c72 18 194 62 197 143c1 22 -18 46 -38 38c-68 -23 -125 -126 -159 -181zM193 -19
c-38 26 -81 40 -125 32c-24 -4 -42 -25 -41 -49c-1 -19 12 -40 33 -46c15 -4 33 -4 48 1c33 11 59 35 85 62z" />
    <glyph glyph-name="P" unicode="P" horiz-adv-x="517" 
d="M172 136c29 -5 54 -15 78 -12c78 6 142 40 191 101c77 96 129 203 157 321c10 38 18 103 -39 109c-25 1 -45 -10 -63 -24c-82 -57 -141 -134 -195 -215c-30 -43 -57 -88 -84 -132c-1 3 0 6 1 8c39 80 79 161 117 241c11 21 21 41 30 63c6 18 -4 28 -21 21
c-8 -2 -14 -7 -20 -12c-24 -19 -47 -41 -74 -59c-44 -29 -89 -55 -133 -84c-44 -28 -83 -62 -105 -110c-8 -16 -12 -35 -12 -53c-1 -18 16 -24 33 -14c-9 21 -3 41 6 60c22 44 54 78 95 106c60 37 119 76 177 115c1 0 2 -1 3 -1c-1 -4 -2 -7 -4 -10
c-67 -145 -136 -289 -201 -435c-29 -65 -71 -194 -95 -260c-2 -7 1 -22 5 -24c11 -5 19 3 23 15l22 47c30 61 81 183 108 238zM190 169c73 136 146 272 254 386c23 24 49 44 75 65c59 52 51 -30 43 -65c-36 -118 -88 -228 -166 -324c-30 -40 -70 -65 -117 -80
c-14 -3 -28 -4 -41 -5c-19 0 -37 3 -48 23z" />
    <glyph glyph-name="Z" unicode="Z" horiz-adv-x="684" 
d="M718 527c-91 -21 -184 -17 -276 -27c-128 -6 -275 -75 -304 -212c-24 16 -13 47 -3 71c47 104 178 150 280 160c77 7 155 11 233 18c56 5 108 26 155 59c9 7 37 5 54 -6c-193 -169 -332 -449 -516 -621c106 -59 204 -162 327 -181c56 1 66 49 97 26
c-145 -127 -318 71 -445 137c-15 -11 -29 -22 -44 -32c-53 -38 -111 -66 -178 -67c-17 -1 -34 0 -50 5c-45 12 -61 55 -36 95c27 44 70 64 120 70c54 5 121 -8 171 -30c160 150 281 369 414 531c0 1 0 3 1 4zM284 -28c-65 27 -126 40 -190 13c-23 -10 -40 -27 -50 -50
c-14 -32 3 -58 37 -59c82 -1 140 47 203 96z" />
    <glyph glyph-name="X" unicode="X" horiz-adv-x="632" 
d="M562 -159c-14 -14 -28 -14 -45 -5c-118 67 -154 242 -188 357c-2 6 -3 13 -5 21c-144 -73 -251 -182 -267 -337c-36 -13 -19 69 -15 83c27 89 83 158 159 209c33 22 85 54 120 72c-19 107 -17 216 -3 324c0 12 0 14 -1 15c-44 -34 -89 -68 -132 -103
c-52 -43 -210 -154 -135 -234c-13 -3 -22 -3 -29 2c-18 16 -25 36 -19 61c10 36 33 65 57 93c40 46 92 77 139 114c34 28 118 88 130 112c6 12 16 14 28 11c13 -4 15 -14 14 -25c-3 -48 -8 -96 -9 -143c0 -69 0 -148 2 -209c71 38 148 85 207 141c56 53 93 115 117 187
c3 9 5 19 10 26c8 10 28 9 23 -7c-12 -74 -49 -135 -99 -189c-71 -79 -170 -137 -256 -184c25 -144 67 -316 197 -392z" />
    <glyph glyph-name="five" unicode="5" horiz-adv-x="350" 
d="M92 191c52 104 109 225 169 325c59 -1 136 3 202 11c7 -2 6 -13 8 -18c-51 -8 -135 -10 -179 -11c-47 -97 -95 -189 -143 -280c22 7 42 15 63 19c66 14 124 -32 113 -99c-15 -93 -54 -175 -126 -237c-31 -27 -66 -45 -108 -39c-55 8 -99 59 -90 117c7 44 26 81 61 109
c16 13 34 21 56 17c35 -7 48 -47 16 -68c0 21 -11 87 -64 33c-36 -35 -54 -78 -44 -128c9 -51 62 -71 107 -46s74 65 98 109c23 42 44 85 51 133c2 11 3 23 2 34c-4 37 -31 57 -69 47c-26 -7 -50 -19 -74 -32c-12 -6 -39 -8 -49 4z" />
    <glyph glyph-name="seven" unicode="7" horiz-adv-x="257" 
d="M159 492c62 11 124 21 186 31c5 0 9 3 14 2c18 -4 35 -12 23 -29c-14 -22 -30 -43 -46 -64c-121 -155 -229 -380 -300 -564c-6 -17 -41 -30 -36 -3c40 109 92 273 153 371c53 85 109 168 174 244l17 22c-71 -9 -137 -31 -205 -24c-4 12 10 12 20 14z" />
    <glyph glyph-name="two" unicode="2" horiz-adv-x="388" 
d="M116 -7l-54 -56c119 -4 170 -45 262 -14c13 4 30 1 8 -12c-41 -22 -84 -35 -137 -20c-64 21 -131 30 -195 30c0 2 -1 3 -1 5c2 4 6 8 9 12c131 121 246 255 330 420c15 35 24 73 30 110c-5 38 -40 56 -70 42c-73 -34 -131 -87 -153 -154c-7 -10 -14 -13 -13 4
c12 80 91 142 160 169c12 4 27 6 40 6c45 -2 85 -36 83 -83c-5 -52 -24 -95 -47 -137c-68 -123 -155 -227 -252 -322z" />
    <glyph glyph-name="nine" unicode="9" horiz-adv-x="439" 
d="M19 -76c-41 20 -1 -36 19 -33c39 -11 76 -6 112 12c130 66 228 253 273 395c23 81 14 233 -103 236c-99 -4 -182 -134 -184 -230c0 -115 116 -142 211 -80c-30 -76 -68 -146 -117 -212c-29 -39 -66 -72 -111 -94c-33 -16 -68 -21 -100 6zM160 313c-5 98 142 289 226 155
c25 -55 12 -154 -26 -206c-31 -29 -66 -49 -109 -50c-51 -1 -90 36 -91 101z" />
    <glyph glyph-name="one" unicode="1" horiz-adv-x="320" 
d="M100 -80c7 2 30 5 45 5s27 -11 1 -14c-46 -5 -87 -14 -128 -20c-24 -4 -22 12 -4 15c22 4 52 9 60 11c64 184 169 384 254 557c-14 -14 -38 -40 -60 -53c-25 -15 -37 -8 -13 12c46 38 87 80 119 132c13 13 37 6 33 -14c-1 -11 -5 -22 -10 -31
c-52 -103 -105 -205 -156 -308c-47 -97 -96 -194 -141 -292z" />
    <glyph glyph-name="zero" unicode="0" horiz-adv-x="455" 
d="M405 326c-11 -144 -74 -287 -166 -384c-26 -27 -54 -48 -92 -57c-69 -16 -130 11 -143 95c-10 66 -1 129 19 192c37 113 86 219 161 313c12 15 25 32 42 39c54 22 115 15 148 -48c18 -34 31 -94 31 -150zM43 -48c11 -46 48 -66 94 -55c39 9 67 34 91 64
c95 122 163 292 134 441c-6 32 -14 64 -37 90c-16 19 -35 27 -61 23c-20 -2 -32 -14 -42 -28c-70 -93 -121 -197 -158 -307c-25 -78 -39 -151 -21 -228z" />
    <glyph glyph-name="six" unicode="6" horiz-adv-x="328" 
d="M89 208c49 32 136 49 164 -34c32 -110 -36 -314 -164 -321c-31 -2 -60 14 -80 58c-39 172 91 420 195 538c31 34 114 109 158 61c-56 -12 -72 -13 -112 -54c-69 -70 -122 -156 -161 -248zM217 171c-26 81 -113 31 -136 4c-18 -41 -63 -161 -47 -249c11 -41 25 -49 47 -51
c124 -11 174 214 136 296z" />
    <glyph glyph-name="eight" unicode="8" horiz-adv-x="359" 
d="M428 450c-21 -123 -127 -245 -204 -328c18 -91 -42 -203 -129 -230c-65 -20 -103 34 -94 85c21 99 94 206 172 265c-1 56 -2 121 22 180c16 45 43 82 82 110c75 50 159 8 151 -82zM219 160c86 91 172 197 172 312c-1 24 -8 45 -29 58c-66 31 -132 -75 -145 -124
c-22 -88 -13 -166 2 -246zM176 213c-48 -29 -219 -271 -121 -308c11 -4 26 -4 44 2c21 12 41 27 57 44c37 38 53 108 37 150c-14 -7 -24 -25 -35 -35c-22 -8 -3 20 0 24l28 35c-4 27 -10 62 -10 88z" />
    <glyph glyph-name="three" unicode="3" horiz-adv-x="371" 
d="M110 60h-13c-45 -4 -79 -54 -74 -99c12 -74 95 -34 129 -7c49 40 82 91 96 154c13 57 -9 88 -68 95c-37 5 -61 9 -22 33c61 40 118 84 164 141c28 36 52 71 55 113c0 38 -44 20 -63 10c-53 -32 -104 -76 -125 -136c-3 -6 -10 -12 -15 -12c-18 58 71 130 120 164
c43 29 135 25 125 -43c-19 -121 -142 -206 -241 -255c68 -4 108 -34 108 -112c-2 -71 -51 -142 -115 -181c-56 -36 -161 -51 -171 35c-1 50 46 120 99 111c9 -2 11 -6 11 -11z" />
    <glyph glyph-name="four" unicode="4" horiz-adv-x="326" 
d="M205 201c38 -2 75 2 104 7c18 3 30 -4 7 -13c-39 -14 -99 -14 -119 -12c-45 -89 -98 -190 -143 -279c-9 -18 -15 -20 -34 -8c20 50 37 101 60 150c22 49 49 95 75 144c-50 5 -97 12 -141 6c-14 2 -18 10 -9 21c5 7 11 14 17 20c47 50 80 110 109 171l53 112
c3 7 6 14 11 18c8 8 36 12 32 -1c-12 -31 -23 -63 -36 -94c-35 -79 -92 -164 -153 -223c46 0 88 -6 126 -14c37 63 77 137 114 205l79 143c8 14 17 16 32 6c-55 -123 -119 -237 -184 -359z" />
    <glyph glyph-name="germandbls" unicode="&#xdf;" horiz-adv-x="636" 
d="M454 310l12 -8c107 -90 113 -262 11 -357c-65 -57 -201 -93 -239 3c-4 10 0 19 12 22s13 -4 15 -15c4 -21 33 -42 57 -42c42 0 79 12 111 39c81 69 102 169 56 269c-12 28 -30 50 -55 68c-23 18 -22 29 4 43c113 58 171 90 227 202c12 24 12 49 4 74
c-11 35 -35 48 -70 39c-47 -13 -83 -43 -116 -76c-61 -59 -104 -131 -142 -206c-60 -119 -120 -237 -182 -354c-31 -57 -68 -110 -112 -158c-10 -10 -36 -34 -47 -16l20 28c67 89 117 187 167 285c55 106 113 210 172 312c38 65 86 122 149 165c21 15 47 27 72 36
c37 12 75 13 104 -18c30 -33 32 -75 16 -114c-52 -124 -146 -159 -246 -221z" />
    <glyph glyph-name="copyright" unicode="&#xa9;" horiz-adv-x="624" 
d="M339 186c-9 17 -44 -45 -79 -7c-71 77 -4 202 68 265c26 22 57 16 79 6c6 12 -10 29 -21 32c-36 8 -67 -3 -95 -26c-61 -49 -89 -115 -94 -191c-4 -92 103 -152 142 -79zM237 0c247 -3 447 406 230 573c-71 51 -154 62 -239 28c-154 -62 -236 -252 -227 -382
c7 -126 119 -225 236 -219zM53 176c-21 144 38 284 152 379c161 122 342 -35 316 -218c-24 -143 -111 -304 -282 -307c-93 1 -172 55 -186 146z" />
    <glyph glyph-name="ampersand" unicode="&#x26;" horiz-adv-x="534" 
d="M339 118c59 -99 -28 -225 -114 -268c-74 -35 -163 -21 -206 47c-18 29 -22 61 -17 94c22 119 98 226 222 230c-5 11 -7 21 -12 31c-20 46 -16 92 3 137c20 45 47 84 90 110c81 46 212 2 180 -104c-7 -21 -35 -93 -74 -119c-18 -12 -28 -13 -42 -2c39 17 67 46 81 84
c28 77 -13 173 -107 124c-84 -55 -122 -170 -87 -266c7 -18 3 -23 -16 -20c-101 12 -180 -135 -198 -215c-16 -103 73 -156 160 -124c92 29 173 176 104 252c-51 -14 -89 -41 -109 -81c-6 -12 -10 -26 -13 -40c-33 14 -25 43 -13 62c34 53 165 90 220 100c31 9 62 18 91 31
c33 15 52 41 49 79c-1 17 11 18 23 17c17 -2 28 -16 24 -30c-6 -28 -23 -49 -46 -65c-34 -24 -73 -37 -112 -47c-26 -6 -52 -11 -81 -17z" />
    <glyph glyph-name="dollar" unicode="$" horiz-adv-x="370" 
d="M90 -19c-13 5 -24 8 -34 13c-48 21 -63 56 -53 110c3 19 14 26 29 23c-25 -66 -1 -114 65 -126l84 220c-77 46 -116 129 -72 213c38 69 130 120 213 108c8 13 20 34 27 44c3 5 10 10 16 11c9 1 16 -4 11 -14c-7 -17 -15 -33 -23 -50c10 -6 20 -12 29 -19
c18 -14 31 -32 27 -56c-1 -7 -9 -17 -15 -18c-12 -2 -11 9 -12 17c-2 25 -18 40 -41 52c-44 -93 -80 -185 -120 -276c85 -43 120 -133 47 -220c-44 -52 -116 -43 -148 -38c-8 -19 -24 -53 -32 -73c-1 -2 -2 -7 -4 -7c-9 -5 -26 -8 -21 8c9 28 17 53 27 78zM313 519
c-63 12 -143 -41 -169 -111c-22 -59 0 -133 46 -158c41 89 82 178 123 269zM207 206l-80 -210c130 -31 206 159 80 210z" />
    <glyph glyph-name="registered" unicode="&#xae;" horiz-adv-x="596" 
d="M237 0c179 0 297 181 323 350c11 92 -19 170 -93 223c-71 51 -154 62 -239 28c-154 -62 -236 -252 -227 -382c7 -126 119 -225 236 -219zM53 176c-21 144 38 284 152 379c103 82 240 37 289 -62c24 -50 37 -100 27 -156c-24 -143 -108 -320 -279 -323
c-93 1 -175 71 -189 162zM337 177c-1 1 -1 3 -2 3c-45 23 -72 54 -90 102c36 4 97 44 117 75c10 15 15 31 9 49c-8 25 -26 39 -50 40c-24 0 -48 1 -62 -27c-35 -72 -72 -144 -107 -215c-8 -17 11 -17 23 -13c4 1 6 8 8 12l37 69c24 -73 74 -116 117 -95zM237 302
c21 41 41 83 61 124c6 11 28 11 39 -1c12 -13 16 -29 10 -47c-14 -38 -67 -75 -110 -76z" />
    <glyph glyph-name="Thorn" unicode="&#xde;" horiz-adv-x="624" 
d="M201 202c29 39 58 79 88 117c43 55 90 106 146 146c18 13 38 25 59 32c45 15 81 -10 84 -57c4 -48 -11 -93 -26 -137c-24 -73 -58 -142 -110 -200c-41 -46 -91 -79 -153 -90c-61 -10 -101 21 -137 63c-18 -31 -37 -61 -54 -91l-71 -131c-1 -1 -2 -4 -3 -4
c-13 -6 -31 -12 -23 10c42 120 96 235 153 348c59 116 113 234 169 351c19 40 36 81 56 120c8 14 34 12 30 -8c-11 -32 -22 -64 -36 -94c-57 -125 -115 -250 -173 -374c0 0 0 -1 1 -1zM538 428c2 56 -17 69 -53 46c-31 -20 -61 -44 -87 -69c-84 -81 -165 -191 -231 -305
c95 -152 262 33 303 127c36 67 62 137 68 201z" />
    <glyph glyph-name="at" unicode="@" horiz-adv-x="526" 
d="M364 -9c-91 -70 -180 -78 -272 -9c-55 41 -81 100 -89 167c-10 79 6 155 38 228c37 81 98 140 183 170c99 35 252 -15 275 -160c14 -109 -34 -243 -124 -303c-9 -6 -20 -11 -30 -14c-22 -7 -44 1 -51 23c-13 40 -11 71 -5 107c-35 -43 -72 -104 -115 -122
c-36 -17 -68 -3 -76 36c-5 20 -6 42 -3 63c7 56 27 107 63 152c28 35 66 52 110 55c31 1 57 -9 79 -33c11 13 21 25 39 18c14 -6 8 -17 6 -26c-17 -49 -35 -97 -51 -147c-10 -30 -16 -60 -16 -88c3 -24 9 -27 30 -14c76 56 110 155 114 242c5 137 -100 212 -203 199
c-40 -5 -72 -25 -102 -50c-74 -62 -108 -144 -124 -236c-14 -75 -8 -146 31 -213c71 -116 190 -96 270 -46c9 6 19 10 23 1zM127 110c7 -25 20 -31 42 -17c71 53 126 132 156 212c7 22 7 31 -12 45c-31 22 -74 16 -106 -17c-52 -59 -96 -148 -80 -223z" />
    <glyph glyph-name="percent" unicode="%" horiz-adv-x="427" 
d="M80 108c127 159 256 317 385 475c38 43 46 -11 13 -33c-70 -87 -141 -172 -210 -259c-78 -99 -155 -198 -232 -298c-71 -31 26 87 44 115zM214 127c-18 -26 -42 -97 -29 -132c14 -55 73 -42 102 -5c12 18 21 38 28 58c11 31 9 62 3 78c-14 41 -72 46 -104 1zM218 7
c4 30 13 60 23 89c18 49 49 43 49 -11c-1 -34 -11 -67 -32 -94c-16 -25 -46 -12 -40 16zM188 385c-20 2 -31 18 -38 35c-19 47 2 129 41 162c24 20 42 18 60 -8c45 -55 13 -185 -63 -189zM177 463c-2 -19 3 -91 32 -51c26 38 32 79 23 123c-14 82 -55 -43 -55 -72z" />
    <glyph glyph-name="thorn" unicode="&#xfe;" horiz-adv-x="425" 
d="M151 24c-39 -65 -77 -131 -115 -196c-9 -17 -44 -30 -35 -1c11 31 22 63 37 94c54 115 109 231 167 345c40 79 84 156 127 233c26 36 62 46 40 3l-119 -237c-30 -67 -71 -132 -95 -199l60 100c36 61 77 120 130 168c13 12 28 23 45 29c50 19 57 -47 48 -78
c-21 -81 -54 -157 -111 -220c-55 -62 -97 -72 -179 -41zM398 347c-113 -75 -166 -196 -235 -305c32 -25 71 -22 102 10c71 73 115 161 139 259c4 14 5 30 -6 36z" />
    <glyph glyph-name="sterling" unicode="&#xa3;" horiz-adv-x="357" 
d="M0 -8c78 59 120 145 157 230h-37c-23 0 -12 18 3 18h41c48 95 86 200 132 277c28 46 66 78 107 66c29 -9 40 -32 44 -59c4 -64 -49 -141 -113 -103c-14 8 2 36 16 11c8 -14 16 -11 26 -5c37 20 55 78 36 116c-13 27 -36 17 -47 6c-45 -45 -110 -207 -161 -307
c26 -1 58 0 90 0c25 0 24 -18 -9 -18c-21 -1 -67 0 -86 -1c-14 -31 -39 -77 -57 -106c-24 -38 -48 -76 -76 -104c44 -4 73 -37 110 -55c69 -26 139 9 102 83c48 14 46 -76 8 -95c-37 -23 -80 -20 -120 -4c-26 11 -52 24 -78 37c-19 9 -48 11 -69 0c-11 -5 -27 2 -19 13z" />
    <glyph glyph-name="braceright" unicode="}" horiz-adv-x="341" 
d="M250 215c-66 -33 -82 -159 -109 -244c-12 -37 -36 -67 -67 -89c-12 -10 -29 -15 -46 -20c-7 -2 -31 0 -28 8c1 2 3 4 5 4c59 14 85 58 101 108c28 84 47 211 109 238c-34 68 29 156 58 226c19 47 29 92 -21 113c-2 0 -1 2 -2 4c77 0 77 -75 56 -124
c-20 -49 -35 -70 -57 -119c-12 -28 -20 -90 1 -105z" />
    <glyph glyph-name="numbersign" unicode="#" horiz-adv-x="499" 
d="M279 197c-19 -2 -129 -12 -141 -14l-101 -209c-2 -4 -4 -11 -8 -13c-14 -6 -33 -7 -26 13l78 179l11 27c-24 -3 -54 -7 -76 -7c-34 0 -5 15 6 17l79 15c13 29 39 87 54 117c-26 -1 -52 -5 -78 -7c-21 -2 -54 8 -17 14c31 5 72 10 102 13c24 40 73 126 99 171
c5 9 12 19 21 25c20 11 33 1 24 -19c-24 -48 -48 -96 -73 -144l-12 -23l141 16l85 164c3 4 4 10 8 12c13 8 33 9 25 -12c-23 -55 -47 -106 -69 -157c14 0 31 3 43 3c17 1 46 -11 11 -20c-27 -5 -42 -5 -64 -9c-15 -26 -45 -91 -60 -122l85 9c43 5 21 -24 -6 -26l-94 -11
l-106 -219c-2 -5 -3 -12 -7 -14c-12 -7 -33 -9 -26 11c29 70 62 156 92 220zM351 347c-59 -10 -57 -8 -145 -20c-18 -38 -43 -88 -57 -119c48 5 95 8 138 13c22 39 50 99 64 126z" />
    <glyph glyph-name="question" unicode="?" horiz-adv-x="436" 
d="M80 112c16 38 37 73 64 105c36 42 75 79 120 113c60 48 117 102 95 179c-12 42 -58 64 -97 42c-60 -34 -96 -85 -99 -157c-1 -7 -4 -18 -8 -19c-13 -3 -16 8 -15 18c1 72 38 131 90 164c95 51 199 -18 161 -120c-17 -44 -45 -79 -78 -111c-37 -37 -77 -69 -112 -108
c-36 -41 -68 -86 -101 -130c-30 -29 -30 -2 -20 24zM6 -36c10 23 14 44 39 50c16 2 19 -10 11 -21l-24 -35c-12 -14 -38 -19 -26 6z" />
    <glyph glyph-name="parenright" unicode=")" horiz-adv-x="332" 
d="M259 603c43 -4 57 -69 59 -100c14 -194 -139 -561 -268 -615c-30 -13 -57 -21 -36 -2c153 127 248 361 272 545c7 59 -1 117 -27 172z" />
    <glyph glyph-name="eth" unicode="&#xf0;" horiz-adv-x="297" 
d="M241 365c17 9 35 17 50 21c18 6 31 -9 5 -24c-16 -8 -27 -14 -47 -26c18 -92 17 -186 -14 -271c-29 -81 -110 -200 -199 -192c-37 2 -41 34 -32 73c26 110 107 205 212 235c6 43 5 92 -6 140c-27 -12 -54 -32 -83 -41c-36 -11 -40 7 -8 25l83 41c-9 48 -21 87 -56 133
c-2 6 -1 19 3 21c9 4 13 -2 22 -10c27 -24 56 -74 70 -125zM215 156c-97 -28 -168 -128 -187 -220c-4 -21 -1 -36 13 -38c67 -12 133 124 148 169c10 29 18 59 26 89z" />
    <glyph glyph-name="asterisk" unicode="*" horiz-adv-x="212" 
d="M148 448c-18 13 -24 28 -37 38c-14 -22 -19 -43 -36 -65c-12 -12 -27 -14 -18 6c10 21 20 45 28 68c-22 -8 -47 -21 -71 -24c-18 -4 -18 8 -3 13l74 30l-35 44c-18 26 10 31 23 14l30 -40c8 17 16 38 23 56c8 21 35 17 23 -11l-18 -43c29 7 46 18 68 21c20 3 21 -7 7 -12
c-27 -10 -51 -24 -81 -35c14 -16 22 -29 36 -45c16 -20 9 -31 -13 -15z" />
    <glyph glyph-name="exclam" unicode="!" horiz-adv-x="351" 
d="M51 52c21 52 40 102 64 152c54 115 110 228 166 342c7 13 14 27 25 37c15 12 45 6 35 -17c-83 -173 -177 -343 -261 -515c-14 -24 -44 -40 -29 1zM1 -89c4 23 11 52 36 58c16 2 19 -12 11 -23l-26 -42c-12 -14 -26 -20 -21 7z" />
    <glyph glyph-name="asciitilde" unicode="~" horiz-adv-x="254" 
d="M11 243c25 32 68 44 96 26c11 -7 21 -16 31 -25c36 -26 83 -1 98 31c3 7 19 -17 0 -38c-21 -24 -79 -41 -114 -15c-39 31 -47 45 -92 5c-30 -30 -40 -11 -19 16z" />
    <glyph glyph-name="cent" unicode="&#xa2;" horiz-adv-x="303" 
d="M232 326c9 -3 37 -12 49 -41c2 -7 -4 -23 -12 -20c-11 17 -21 33 -49 39c-45 -95 -87 -187 -130 -277c38 -19 60 -11 81 8c7 7 15 17 29 6c-27 -39 -79 -57 -120 -34c-16 -43 -33 -83 -51 -122c-2 -5 -5 -11 -9 -12c-6 -1 -13 -1 -19 2c-1 0 -2 9 0 14l51 128
c-25 20 -70 133 -26 205c33 61 89 112 164 113c30 51 50 100 77 138c4 6 10 12 16 15c12 7 21 -6 16 -16c-20 -45 -41 -90 -62 -135c-2 -3 -3 -7 -5 -11zM180 307c-55 -1 -95 -51 -119 -100c-24 -50 -24 -115 4 -156c42 92 76 178 115 256z" />
    <glyph glyph-name="bracketright" unicode="]" horiz-adv-x="381" 
d="M23 -157c17 5 23 17 29 32c45 109 87 219 135 327c40 91 86 179 129 268l47 92c3 7 -3 11 -10 13c-16 6 -22 12 4 15c20 2 46 -11 34 -35c-13 -30 -22 -48 -35 -77c-59 -133 -118 -265 -176 -398c-34 -76 -67 -153 -100 -229c-28 -48 -117 -23 -57 -8z" />
    <glyph glyph-name="bracketleft" unicode="[" horiz-adv-x="313" 
d="M371 552c-17 -5 -23 -17 -29 -32c-45 -109 -87 -219 -135 -327c-40 -91 -86 -179 -129 -268l-47 -92c-3 -7 3 -11 10 -13c16 -6 22 -12 -4 -15c-20 -2 -46 11 -34 35c13 30 22 48 35 77c59 133 118 265 176 398c34 76 67 153 100 229c28 48 117 23 57 8z" />
    <glyph glyph-name="parenleft" unicode="(" horiz-adv-x="181" 
d="M66 -133c-43 4 -57 69 -59 100c-14 194 139 561 268 615c30 13 57 21 36 2c-153 -127 -248 -361 -272 -545c-7 -59 1 -117 27 -172z" />
    <glyph glyph-name="braceleft" unicode="{" horiz-adv-x="265" 
d="M94 245c66 33 62 122 89 207c12 37 36 67 67 89c12 10 29 15 46 20c7 2 31 0 28 -8c-1 -2 -3 -4 -5 -4c-59 -14 -85 -58 -101 -108c-28 -84 -22 -186 -84 -213c34 -68 -54 -181 -83 -251c-19 -47 -29 -92 21 -113c2 0 1 -2 2 -4c-77 0 -77 75 -56 124
c20 49 55 107 77 156c12 28 20 90 -1 105z" />
    <glyph glyph-name="asciicircum" unicode="^" horiz-adv-x="241" 
d="M143 460l-86 -115c-8 -12 -18 -23 -28 -34c-4 -5 -10 -9 -16 -10c-10 -1 -17 4 -10 15c9 15 19 28 29 42l101 131c7 10 16 17 30 14c13 -2 19 -12 22 -24l40 -178c1 -7 5 -18 -8 -20c-11 -1 -20 1 -23 14c-10 61 -22 112 -34 163c-3 14 -8 16 -17 2z" />
    <glyph glyph-name="underscore" unicode="_" horiz-adv-x="385" 
d="M14 -77c7 2 15 4 23 5c38 4 77 8 116 9c55 1 110 -1 165 -1c8 -1 16 1 24 0c13 -3 19 -14 3 -18c-14 -2 -28 -4 -42 -4c-81 -2 -162 -4 -242 -5c-17 -2 -30 -2 -44 -2c-21 4 -19 10 -3 16z" />
    <glyph glyph-name="bar" unicode="|" horiz-adv-x="303" 
d="M3 -196c9 22 16 43 26 64c50 115 99 230 153 343c71 150 146 299 220 449c3 5 5 13 10 16c12 5 29 4 21 -11c-15 -36 -30 -73 -46 -108c-66 -137 -134 -274 -199 -411c-39 -82 -74 -166 -112 -249c-16 -34 -35 -67 -51 -101c-11 -16 -32 -17 -22 8z" />
    <glyph glyph-name="Euro" unicode="&#x20ac;" horiz-adv-x="319" 
d="M56 128c-9 2 -23 0 -35 -1c-22 -2 -14 15 5 18l31 4c2 8 8 58 11 66c-14 0 -103 0 -52 17c16 3 46 7 62 9c26 68 60 146 118 202c31 32 67 55 110 63c17 3 35 1 53 -1c23 -5 20 -22 -1 -18c-41 6 -76 -10 -106 -34c-55 -45 -88 -105 -115 -168c-6 -12 -10 -25 -15 -39
c57 0 102 13 151 3c1 -12 -12 -17 -20 -18c-18 -2 -127 -10 -141 -12c-5 -11 -13 -37 -13 -63l44 3c24 2 48 4 72 5c36 2 31 -17 -3 -20c-16 -2 -103 -8 -116 -11c-4 -61 6 -133 39 -186c23 -37 58 -52 101 -43c10 1 21 3 25 -5c-6 -3 -11 -7 -17 -9c-55 -17 -114 4 -145 51
c-38 61 -43 122 -43 187z" />
    <glyph glyph-name="equal" unicode="=" horiz-adv-x="314" 
d="M245 161c-62 0 -124 -6 -186 0c-30 3 -14 26 -1 26h188c36 -4 33 -26 -1 -26zM271 240c-58 1 -122 -4 -180 -2c-29 -2 -45 26 -13 26c66 1 133 1 199 0c33 -3 15 -24 -6 -24z" />
    <glyph glyph-name="slash" unicode="/" horiz-adv-x="394" 
d="M525 585c-27 -34 -54 -66 -79 -100l-273 -355l-141 -185c-8 -10 -17 -16 -32 -6l15 25l183 244c56 73 110 146 167 218c37 48 76 95 115 142c10 12 21 28 45 17z" />
    <glyph glyph-name="yen" unicode="&#xa5;" horiz-adv-x="283" 
d="M308 508c-49 -89 -105 -170 -161 -260c21 0 35 1 53 1c17 0 11 -13 1 -15c-22 -6 -44 -4 -66 -7c-10 -26 -14 -47 -23 -73c37 4 34 6 53 7c21 1 16 -11 3 -16c-24 -7 -46 -9 -61 -13c-13 -58 -47 -159 -62 -217c-1 -7 -34 -21 -29 4c19 69 44 141 63 211
c-17 -1 -40 -4 -59 -6c-21 -2 -24 12 -2 16c12 3 54 8 65 10c7 18 12 56 20 76c-16 0 -35 -7 -52 -5c-21 4 -13 11 1 14l53 9c-22 92 -34 173 -45 258c-1 8 0 17 0 25c0 11 5 19 18 20c12 0 19 -5 20 -17c4 -28 8 -55 11 -83c6 -67 12 -118 20 -179c22 35 42 65 62 96
c34 54 69 108 104 162c25 24 27 7 13 -18z" />
    <glyph glyph-name="greater" unicode="&#x3e;" horiz-adv-x="161" 
d="M0 60c33 59 87 100 127 149l-21 52c-13 29 -26 58 -38 87c-5 15 9 25 20 14c8 -8 14 -19 19 -29l44 -108c5 -12 4 -22 -4 -31c-42 -45 -83 -90 -125 -134c-8 -6 -18 -8 -22 0z" />
    <glyph glyph-name="less" unicode="&#x3c;" horiz-adv-x="122" 
d="M158 359c-42 -56 -87 -93 -127 -142c7 -18 12 -36 19 -53c13 -29 26 -58 38 -87c5 -15 -9 -25 -20 -14c-8 8 -14 19 -19 29l-44 108c-5 12 -4 22 4 31c42 45 83 90 125 134c8 6 20 2 24 -6z" />
    <glyph glyph-name="plus" unicode="+" horiz-adv-x="202" 
d="M143 245h83c21 0 4 -22 -5 -24c-29 -3 -55 -1 -89 -6c-13 -39 -33 -94 -47 -132c-3 -6 -4 -13 -9 -15c-13 -8 -30 -6 -24 11c15 47 34 99 49 139c-28 1 -53 -4 -78 -2c-42 4 -17 21 5 23c18 2 61 3 80 3c11 25 23 57 37 82c9 22 36 28 31 5c-9 -32 -22 -58 -33 -84z" />
    <glyph glyph-name="period" unicode="." horiz-adv-x="85" 
d="M3 -19c10 23 14 44 39 50c16 2 29 -12 21 -23l-24 -35c-12 -14 -48 -17 -36 8z" />
    <glyph glyph-name="hyphen" unicode="-" horiz-adv-x="267" 
d="M234 158c-57 -1 -115 -1 -173 0c-34 0 -38 22 -7 22c59 1 118 1 177 0c41 0 21 -22 3 -22z" />
    <glyph glyph-name="minus" unicode="&#x2212;" horiz-adv-x="345" 
d="M285 159c-57 -1 -199 -1 -257 0c-34 0 -35 21 -4 21c59 1 202 1 261 0c41 0 18 -21 0 -21z" />
    <glyph glyph-name="ellipsis" unicode="&#x2026;" horiz-adv-x="255" 
d="M3 -19c10 23 14 44 39 50c16 2 29 -12 21 -23l-24 -35c-12 -14 -48 -17 -36 8zM173 -19c10 23 14 44 39 50c16 2 29 -12 21 -23l-24 -35c-12 -14 -48 -17 -36 8zM88 -19c10 23 14 44 39 50c16 2 29 -12 21 -23l-24 -35c-12 -14 -48 -17 -36 8z" />
    <glyph glyph-name="comma" unicode="," horiz-adv-x="118" 
d="M41 29c17 2 23 -4 22 -17c1 -13 -13 -48 -42 -65c-8 -6 -30 -11 -17 2c9 9 11 22 5 30c-6 9 -2 22 5 34c10 13 14 13 27 16z" />
    <glyph glyph-name="quoteright" unicode="&#x2019;" horiz-adv-x="70" 
d="M41 512c17 2 22 -4 22 -17s-13 -48 -42 -65c-8 -6 -30 -11 -17 2c9 9 11 22 5 30c-6 9 -2 22 5 34c10 13 14 13 27 16z" />
    <glyph glyph-name="quoteleft" unicode="&#x2018;" horiz-adv-x="68" 
d="M22 429c-17 -2 -22 4 -22 17s13 48 42 65c8 6 30 11 17 -2c-9 -9 -11 -22 -5 -30c6 -9 2 -22 -5 -34c-10 -13 -14 -13 -27 -16z" />
    <glyph glyph-name="quotedblright" unicode="&#x201d;" horiz-adv-x="157" 
d="M41 512c17 2 22 -4 22 -17s-13 -48 -42 -65c-8 -6 -30 -11 -17 2c9 9 11 22 5 30c-6 9 -2 22 5 34c10 13 14 13 27 16zM123 512c17 2 22 -4 22 -17s-13 -48 -42 -65c-8 -6 -30 -11 -17 2c9 9 11 22 5 30c-6 9 -2 22 5 34c10 13 14 13 27 16z" />
    <glyph glyph-name="quotedblleft" unicode="&#x201c;" horiz-adv-x="172" 
d="M104 421c-17 -2 -22 4 -22 17s13 48 42 65c8 6 30 11 17 -2c-9 -9 -11 -22 -5 -30c6 -9 2 -22 -5 -34c-10 -13 -14 -13 -27 -16zM22 421c-17 -2 -22 4 -22 17s13 48 42 65c8 6 30 11 17 -2c-9 -9 -11 -22 -5 -30c6 -9 2 -22 -5 -34c-10 -13 -14 -13 -27 -16z" />
    <glyph glyph-name="quotesingle" unicode="'" horiz-adv-x="96" 
d="M1 438c5 32 18 69 43 75c16 2 29 -12 21 -23l-39 -58c-12 -14 -29 -21 -25 6z" />
    <glyph glyph-name="quotedbl" unicode="&#x22;" horiz-adv-x="156" 
d="M1 438c5 32 18 69 43 75c16 2 29 -12 21 -23l-39 -58c-12 -14 -29 -21 -25 6zM79 438c5 32 18 69 43 75c16 2 29 -12 21 -23l-39 -58c-12 -14 -29 -21 -25 6z" />
    <glyph glyph-name="colon" unicode=":" horiz-adv-x="174" 
d="M75 -19c10 23 14 44 39 50c16 2 29 -12 21 -23c-8 -12 -13 -24 -21 -36c-12 -14 -51 -16 -39 9zM75 155c10 23 14 44 39 50c16 2 29 -12 21 -23c-8 -12 -13 -24 -21 -36c-12 -14 -51 -16 -39 9z" />
    <glyph glyph-name="semicolon" unicode=";" horiz-adv-x="126" 
d="M46 155c10 23 14 44 39 50c16 2 29 -12 21 -23c-8 -12 -13 -25 -21 -37c-12 -14 -51 -15 -39 10zM84 29c17 2 23 -4 22 -17c1 -13 -13 -48 -42 -65c-8 -6 -30 -11 -17 2c9 9 11 22 5 30c-6 9 -2 22 5 34c10 13 14 13 27 16z" />
    <glyph glyph-name="fraction" unicode="&#x2044;" horiz-adv-x="335" 
d="M525 785c-27 -34 -54 -66 -79 -100l-273 -355l-141 -185c-8 -10 -17 -16 -32 -6l15 25l183 244c56 73 110 146 167 218c37 48 76 95 115 142c10 12 21 28 45 17z" />
    <glyph glyph-name="backslash" unicode="\" horiz-adv-x="550" 
d="M525 -60c-24 -11 -35 5 -45 17c-39 47 -78 94 -115 142c-57 72 -111 145 -167 218l-183 244l-15 25c15 10 24 4 32 -6l141 -185l273 -355c25 -34 52 -66 79 -100z" />
    <glyph glyph-name="cedilla" unicode="&#xb8;" horiz-adv-x="124" 
d="M101 -25l-35 -77c41 -7 51 -26 35 -66c-15 -36 -44 -55 -76 -49c-14 3 -24 10 -25 25c2 13 18 25 25 8c12 -19 20 -22 33 -4c11 15 19 33 24 50c3 10 -2 20 -17 18c-4 -1 -8 -1 -12 -1c-17 1 -20 6 -14 21c9 22 19 43 29 65c6 13 15 18 33 10z" />
    <glyph glyph-name="circumflex" unicode="&#x2c6;" horiz-adv-x="161" 
d="M66 523c-15 -16 -28 -31 -41 -46s-38 -15 -18 10c15 19 30 39 46 56c12 13 28 10 36 -5c10 -19 27 -39 35 -58c6 -28 -19 -20 -23 -14c-14 19 -26 38 -35 57z" />
    <glyph glyph-name="tilde" unicode="&#x2dc;" horiz-adv-x="210" 
d="M0 453c3 5 7 10 11 14c16 16 40 23 61 20c27 -4 42 -30 71 -23c13 3 25 14 32 21c16 3 23 -8 7 -22c-13 -11 -22 -16 -39 -19c-35 -5 -44 12 -69 20c-12 4 -28 4 -45 -9c-9 -6 -29 -18 -29 -2z" />
    <glyph glyph-name="grave" unicode="`" horiz-adv-x="117" 
d="M56 438c-18 20 -35 40 -52 60c-13 20 17 22 27 12c20 -20 38 -42 56 -63c3 -3 6 -10 4 -12c-8 -15 -27 -5 -35 3z" />
    <glyph glyph-name="dieresis" unicode="&#xa8;" horiz-adv-x="138" 
d="M68 464c9 16 11 29 31 36c16 2 17 -10 13 -21c-4 -8 -9 -16 -16 -23c-9 -12 -37 -11 -28 8zM2 464c9 16 11 29 31 36c16 2 17 -10 13 -21c-4 -8 -9 -16 -16 -23c-9 -12 -37 -11 -28 8z" />
    <glyph glyph-name="acute" unicode="&#xb4;" horiz-adv-x="126" 
d="M9 447c30 30 55 52 78 70c12 6 42 -3 19 -23l-72 -57c-14 -10 -51 -10 -25 10z" />
    <glyph glyph-name="caron" unicode="&#x2c7;" horiz-adv-x="119" 
d="M49 462c15 19 23 34 35 50c12 15 39 9 21 -14c-15 -21 -30 -42 -46 -62c-9 -9 -21 -8 -28 5c-9 19 -20 39 -28 58c-3 8 -7 22 4 24c10 3 20 -4 23 -16c4 -14 13 -32 19 -45z" />
    <glyph glyph-name="ring" unicode="&#x2da;" horiz-adv-x="146" 
d="M42 427c-26 0 -43 16 -42 41c1 35 30 71 55 70c33 -1 60 -23 59 -49c-1 -32 -37 -63 -72 -62zM81 490c-1 2 -2 10 -5 16c-9 17 -20 17 -30 0c-7 -13 -12 -29 -15 -44c-3 -16 7 -23 22 -18s28 25 28 46z" />
    <glyph glyph-name="questiondown" unicode="&#xbf;" horiz-adv-x="436" 
d="M319 260c-16 -38 -37 -73 -64 -105c-36 -42 -75 -79 -120 -113c-60 -48 -117 -102 -95 -179c12 -42 58 -64 97 -42c60 34 96 85 99 157c1 7 4 18 8 19c13 3 16 -8 15 -18c-1 -72 -38 -131 -90 -164c-95 -51 -199 18 -161 120c17 44 45 79 78 111c37 37 77 69 112 108
c36 41 68 86 101 130c30 29 30 2 20 -24zM393 408c-10 -23 -14 -44 -39 -50c-16 -2 -19 10 -11 21l24 35c12 14 38 19 26 -6z" />
    <glyph glyph-name="divide" unicode="&#xf7;" horiz-adv-x="298" 
d="M117 -19c10 23 14 44 39 50c16 2 29 -12 21 -23c-8 -12 -13 -24 -21 -36c-12 -14 -51 -16 -39 9zM117 155c10 23 14 44 39 50c16 2 29 -12 21 -23c-8 -12 -13 -24 -21 -36c-12 -14 -51 -16 -39 9zM263 70c-57 -1 -179 -1 -237 0c-34 0 -35 21 -4 21c59 1 182 1 241 0
c41 0 18 -21 0 -21z" />
    <glyph glyph-name="quotesinglbase" unicode="&#x201a;" horiz-adv-x="95" 
d="M1 -66c5 32 18 69 43 75c16 2 29 -12 21 -23l-39 -58c-12 -14 -29 -21 -25 6z" />
    <glyph glyph-name="quotedblbase" unicode="&#x201e;" horiz-adv-x="205" 
d="M1 -66c5 32 18 69 43 75c16 2 29 -12 21 -23l-39 -58c-12 -14 -29 -21 -25 6zM97 -66c5 32 18 69 43 75c16 2 29 -12 21 -23l-39 -58c-12 -14 -29 -21 -25 6z" />
    <glyph glyph-name="plusminus" unicode="&#xb1;" horiz-adv-x="348" 
d="M221 245h83c21 0 4 -22 -5 -24c-29 -3 -55 -1 -89 -6c-13 -39 -33 -94 -47 -132c-3 -6 -4 -13 -9 -15c-13 -8 -30 -6 -24 11c15 47 34 99 49 139c-28 1 -53 -4 -78 -2c-42 4 -17 21 5 23c18 2 61 3 80 3c11 25 23 57 37 82c9 22 36 28 31 5c-9 -32 -22 -58 -33 -84z
M285 -1c-57 -1 -199 -1 -257 0c-34 0 -35 21 -4 21c59 1 202 1 261 0c41 0 18 -21 0 -21z" />
    <glyph glyph-name="a.salt" 
d="M277 181l13 -11c-82 -139 -139 -202 -190 -197c-57 6 -59 54 -49 87l17 47c-22 -24 -45 -51 -70 -68c-19 -12 -56 -23 -56 12c-2 53 40 119 82 153c7 5 14 10 22 14c29 15 51 11 73 -15c6 9 11 18 19 26c5 6 14 11 22 12c18 3 23 -6 14 -23c-77 -148 -113 -213 -71 -225
c47 -13 145 142 174 188zM106 185c-10 11 -16 30 -50 5c-30 -24 -69 -74 -78 -119c-3 -14 0 -20 3 -21c25 -8 100 109 125 135z" />
    <glyph glyph-name="b.salt" horiz-adv-x="306" 
d="M80 374c59 99 137 200 201 172c101 -44 -124 -313 -240 -373c-18 -61 -29 -111 -33 -135c35 48 88 114 132 142c27 17 45 14 53 -1c11 -19 7 -56 -7 -88c36 8 95 46 120 90l17 -5c-37 -64 -97 -94 -141 -109c-16 -33 -39 -75 -70 -99c-52 -41 -124 -20 -71 46
c23 29 62 56 90 64c7 15 11 23 13 29c9 25 15 42 15 51c2 40 -171 -170 -166 -168c-14 -3 -35 -9 -31 13c22 131 51 259 118 371zM46 198c86 55 277 268 228 325c-26 30 -172 -158 -228 -325zM122 50c-12 -1 -46 -27 -64 -49c-27 -32 0 -37 22 -17c20 19 34 51 42 66z" />
    <glyph glyph-name="c.salt" horiz-adv-x="203" 
d="M30 -27c-118 32 -44 267 54 278c15 1 27 -4 32 -22c2 -12 -1 -18 -10 -9c-24 21 -46 -14 -63 -44c-33 -58 -63 -174 -13 -183c67 -12 141 130 173 188l15 -8c-42 -75 -96 -200 -188 -200z" />
    <glyph glyph-name="d.salt" horiz-adv-x="380" 
d="M380 181l14 -10c-38 -71 -102 -198 -188 -198c-52 0 -99 49 -92 116c-59 -78 -84 -91 -104 -91c-26 0 -46 22 -47 70c3 51 20 96 54 134c38 40 94 39 123 12c26 85 153 373 268 331c19 -7 33 -40 28 -69c-21 -118 -187 -280 -269 -346c-17 -48 -7 -136 41 -136
c68 0 148 141 172 187zM173 161c129 112 213 220 238 309c6 21 1 43 -10 49c-85 48 -216 -294 -228 -358zM114 115c7 17 12 41 14 57c2 18 -2 31 -17 39c-38 17 -78 -76 -89 -102c-10 -21 -21 -84 0 -88c7 -1 19 5 92 94z" />
    <glyph glyph-name="e.salt" horiz-adv-x="177" 
d="M177 181l15 -8c-27 -48 -92 -194 -156 -200c-58 -5 -80 71 -73 117c9 56 40 102 79 142c27 27 75 25 72 -23c-4 -58 -57 -84 -106 -99c-7 -26 -18 -122 27 -119c48 3 114 136 142 190zM11 125c34 9 72 44 79 77c5 24 -8 30 -24 12c-18 -21 -40 -45 -55 -89z" />
    <glyph glyph-name="f.salt" horiz-adv-x="204" 
d="M204 181l15 -8c-46 -86 -116 -117 -176 -59c3 -75 4 -182 -9 -235c-11 -43 -36 -141 -100 -131c-91 125 -4 281 60 422c31 69 66 135 101 192c63 105 127 121 143 86c31 -69 -115 -237 -196 -298c51 -78 120 -51 162 31zM18 127c-35 -82 -134 -248 -72 -359
c35 2 62 90 67 114c11 58 8 153 5 245zM131 346c-30 -51 -61 -109 -85 -163c54 37 186 198 177 255c-3 19 -49 -21 -92 -92z" />
    <glyph glyph-name="g.salt" horiz-adv-x="281" 
d="M281 181l14 -10c-51 -86 -113 -168 -225 -228c-25 -85 -62 -148 -96 -186c-25 -29 -72 -55 -106 -52c-32 3 -53 34 -32 86c32 82 120 130 193 164c8 31 19 61 45 128c-24 -21 -62 -59 -90 -43c-34 19 -15 81 -5 105c11 29 30 53 62 70c35 18 61 9 80 -28
c10 21 18 33 28 49c13 17 48 26 37 -6c-105 -245 -103 -245 -107 -256c80 35 150 118 202 207zM24 -71c-65 -31 -135 -80 -163 -142c-16 -39 -7 -62 11 -64c22 -2 57 23 75 48c34 44 62 110 77 158zM-4 51c36 3 90 75 106 102c7 13 -5 43 -18 50c-16 10 -29 -2 -40 -11
c-35 -31 -70 -97 -48 -141z" />
    <glyph glyph-name="h.salt" horiz-adv-x="351" 
d="M351 181l16 -7c-44 -79 -118 -186 -191 -199c-38 -7 -74 9 -74 58c0 16 -2 35 23 88l12 25c-54 -30 -97 -91 -138 -135c-5 -5 -13 -11 -20 -11c-12 -2 -17 5 -15 18c19 122 56 253 118 356c59 99 137 200 201 172c101 -44 -125 -323 -241 -383c-12 -36 -18 -71 -22 -84
c15 15 25 27 36 37c20 19 41 37 62 54c12 10 26 13 41 3c14 -11 12 -24 0 -57c-8 -22 -28 -54 -30 -81c-2 -35 20 -49 46 -44c63 11 150 138 176 190zM48 193c86 55 277 273 228 330c-26 30 -172 -163 -228 -330z" />
    <glyph glyph-name="i.salt" horiz-adv-x="180" 
d="M180 181l15 -8c-44 -83 -83 -151 -120 -180c-34 -27 -71 -29 -90 10c-21 36 -16 94 -4 130c10 33 27 63 42 94c3 6 7 14 14 18c6 3 15 5 21 2c4 -1 7 -13 5 -18c-12 -31 -27 -61 -36 -92c-7 -20 -19 -87 -13 -122c5 -28 20 -37 52 -9c37 33 100 145 114 175zM104 360
c5 -8 -19 -35 -32 -47c-3 -2 -11 -2 -14 0c-12 12 6 41 14 50c10 11 22 11 32 -3z" />
    <glyph glyph-name="j.salt" horiz-adv-x="159" 
d="M159 181l17 -5c-59 -111 -122 -177 -234 -237c0 -2 -1 -4 -2 -6c-20 -59 -60 -155 -106 -194c-40 -33 -113 -59 -126 14c-5 89 112 160 201 203c30 90 86 233 122 281c11 13 23 11 38 0c-30 -48 -63 -124 -90 -195l-26 -69c80 35 158 117 206 208zM-100 -75
c-51 -23 -116 -73 -145 -109c-11 -14 -20 -32 -24 -50c-2 -48 31 -50 60 -29c52 38 89 125 109 188zM113 364c6 -8 -17 -35 -29 -47c-3 -2 -11 -2 -14 0c-13 12 4 41 11 50c9 11 21 11 32 -3z" />
    <glyph glyph-name="k.salt" horiz-adv-x="319" 
d="M319 181l16 -7c-62 -116 -152 -207 -228 -200c-29 3 -62 25 -65 90c-20 -20 -39 -54 -50 -77c-6 -10 -4 -17 -17 -14c-12 3 -16 10 -14 24c11 103 41 239 129 377c65 99 148 196 212 172c19 -7 28 -47 9 -90c-45 -101 -190 -251 -274 -293c-15 -38 -29 -73 -32 -107
c28 38 123 146 167 152c8 1 13 -1 19 -7c4 -8 2 -23 -2 -32c-28 -54 -75 -74 -109 -78c-1 -2 -1 -4 -1 -7c0 -53 13 -90 37 -90c66 1 161 104 203 187zM45 193c69 42 206 180 245 268c12 27 15 49 4 62c-25 30 -183 -163 -249 -330zM171 187c-10 8 -60 -48 -83 -74
c41 3 90 61 83 74z" />
    <glyph glyph-name="l.salt" horiz-adv-x="249" 
d="M2 190c28 105 117 293 207 346c52 31 77 12 77 -44c-1 -118 -169 -273 -252 -330c-10 -39 -21 -154 37 -164c77 -13 141 116 178 183l14 -10c-48 -90 -102 -198 -193 -198c-106 0 -97 116 -68 217zM44 196c133 104 218 215 218 293c0 40 -6 38 -34 16
c-79 -60 -174 -257 -184 -309z" />
    <glyph glyph-name="m.salt" horiz-adv-x="458" 
d="M458 181l15 -8c-54 -100 -128 -207 -187 -200c-38 4 -64 40 -61 82c4 47 30 92 51 128c-18 -18 -37 -36 -54 -56c-40 -45 -87 -105 -107 -127c-5 -6 -18 -10 -23 -7c-26 17 2 78 11 99c16 34 66 114 66 136l-16 -14l-161 -179c-11 -11 -22 -24 -34 -33
c-7 -5 -19 -6 -27 -3c-4 1 -7 17 -4 23c24 54 49 107 74 161c11 18 46 14 39 -3l-59 -127l27 33c47 49 85 95 129 143c18 18 48 48 64 39c20 -14 7 -50 -1 -72c-7 -17 -16 -35 -25 -52c-19 -35 -45 -76 -57 -107c46 50 94 107 141 157c20 20 64 38 56 -9
c-23 -56 -59 -102 -59 -159c-1 -30 24 -42 53 -31c43 16 109 113 149 186z" />
    <glyph glyph-name="n.salt" horiz-adv-x="357" 
d="M357 181l15 -8c-51 -95 -127 -203 -189 -196c-37 4 -50 33 -52 65c-3 50 20 85 35 123c8 17 12 28 8 29c-55 -32 -126 -122 -171 -167c-6 -7 -13 -12 -21 -15c-17 -8 -35 5 -30 23c14 47 30 94 46 141c4 10 11 17 24 13s14 -15 11 -27c-4 -12 -39 -96 -33 -102
c36 40 152 168 206 153c15 -13 12 -35 3 -62c-9 -25 -21 -48 -29 -71c-4 -13 -10 -30 -12 -46c-4 -28 6 -51 40 -38c41 16 108 108 149 185z" />
    <glyph glyph-name="o.salt" horiz-adv-x="214" 
d="M214 181l15 -8c-30 -54 -79 -134 -139 -116c-11 -24 -46 -91 -83 -85c-68 11 -58 139 -7 190c-11 38 32 159 89 126c49 -28 35 -153 9 -213c44 -21 98 71 116 106zM81 83c9 22 19 63 22 102c3 37 -2 72 -21 85c-15 10 -36 -5 -54 -62c-14 -50 10 -103 53 -125zM11 -12
c20 0 52 51 62 77c-20 9 -47 28 -57 45c-24 -21 -31 -122 -5 -122z" />
    <glyph glyph-name="p.salt" horiz-adv-x="328" 
d="M328 181l15 -8c-36 -63 -108 -88 -151 -91c-27 -53 -53 -101 -113 -105c-25 -1 -39 20 -35 45c13 63 78 78 113 80c22 35 38 95 27 137c-86 14 -273 -399 -309 -519c-14 -26 -32 -10 -29 0c53 234 39 240 173 500c5 10 26 22 24 9c-9 -51 -96 -225 -124 -337
c53 125 148 323 240 366c63 30 76 -61 40 -152c58 4 109 38 129 75zM148 81c-71 -4 -100 -74 -75 -83c26 -9 54 42 75 83z" />
    <glyph glyph-name="q.salt" horiz-adv-x="374" 
d="M374 181l15 -8c-53 -106 -139 -224 -233 -196c10 -104 -39 -273 -115 -272c-143 0 106 381 124 419c-41 -47 -80 -96 -126 -132c-18 -15 -41 -25 -65 -12c-73 53 23 238 116 296c54 34 104 5 116 -68l51 82c6 9 10 19 23 13c12 -6 11 -16 6 -26l-62 -124l-74 -152
c97 -48 198 126 224 180zM14 -3c48 26 111 113 145 155c40 49 21 151 -51 94c-47 -38 -79 -87 -104 -140c-9 -20 -37 -94 -21 -111c5 -6 15 -6 31 2zM137 -26c-59 -88 -132 -249 -98 -253c54 -7 107 147 98 253z" />
    <glyph glyph-name="r.salt" horiz-adv-x="248" 
d="M248 181l14 -10c-37 -73 -86 -152 -120 -177c-11 -8 -19 -15 -32 -19c-29 -8 -54 3 -64 35c-8 27 18 65 30 86c12 24 12 45 -9 67c-13 14 -28 24 -31 46l-22 -38l-15 8l11 22l47 89l20 42c6 11 15 12 25 8c11 -4 12 -12 8 -23l-25 -74c-8 -29 -5 -56 15 -80
c19 -21 23 -45 13 -72c-8 -19 -59 -113 -2 -94c45 15 117 145 137 184z" />
    <glyph glyph-name="s.salt" horiz-adv-x="219" 
d="M219 181l15 -8c-45 -89 -121 -195 -223 -200c-32 -1 -50 4 -73 32c10 17 16 8 29 -2c20 -17 41 -10 53 31c23 75 -36 134 -22 203c5 21 21 28 35 19c4 -3 9 -11 7 -15c-27 -82 61 -146 2 -243c56 14 128 87 177 183z" />
    <glyph glyph-name="t.salt" horiz-adv-x="214" 
d="M214 181l15 -8c-40 -84 -100 -199 -168 -200c-59 0 -93 69 -85 119c14 89 49 150 93 228l31 54c-45 15 -88 30 -134 33c-35 2 -70 -5 -104 -17c-17 -6 -42 -26 -55 -39c-11 -10 -22 -2 -18 9c25 30 55 47 90 56c62 14 122 6 181 -12c15 -5 39 -12 48 -12
c9 14 16 24 24 38l57 96c8 16 37 15 28 -6c-13 -30 -28 -59 -42 -88l-28 -53c46 -13 89 -25 133 -9c12 5 24 16 31 27c8 13 12 17 24 7c-5 -21 -21 -40 -40 -47c-42 -16 -79 -9 -122 -1c-11 2 -21 5 -33 8c-51 -94 -102 -166 -127 -271c-10 -39 0 -101 48 -101
c62 -1 132 148 153 189z" />
    <glyph glyph-name="u.salt" horiz-adv-x="347" 
d="M347 181l15 -8c-55 -93 -127 -200 -179 -200c-64 0 -65 80 -56 118c-23 -30 -49 -58 -77 -81c-17 -14 -38 -19 -58 -8c-20 10 -29 29 -29 51c0 69 29 126 71 178c8 10 18 12 31 2c-29 -66 -70 -127 -70 -196c1 -26 18 -34 37 -17c72 61 117 141 169 216c8 13 18 21 34 14
c3 -2 6 -13 4 -18c-8 -20 -16 -40 -25 -60c-14 -31 -97 -179 -30 -181c34 -1 106 90 163 190z" />
    <glyph glyph-name="v.salt" horiz-adv-x="275" 
d="M120 130c-26 69 -16 235 72 225c34 -4 33 -55 15 -110c-13 -41 -36 -85 -58 -112c23 -74 89 -23 126 48l14 -10c-58 -104 -122 -119 -152 -63c-36 -72 -83 -139 -123 -131c-14 2 -25 16 -28 37c-7 52 8 163 26 213c4 12 10 18 23 14c12 -3 13 -12 11 -23
c-4 -22 -49 -212 -23 -220c19 -7 54 45 97 132zM141 159c14 22 32 62 44 97c11 33 16 61 4 64c-26 7 -62 -88 -48 -161z" />
    <glyph glyph-name="w.salt" horiz-adv-x="368" 
d="M119 -24c-43 -3 -54 64 -44 115c-18 -32 -38 -61 -62 -87c-10 -11 -26 -19 -38 -9c-30 27 -14 86 -3 117c14 42 34 82 52 122c4 7 9 14 15 17c5 3 14 3 21 1c2 -1 3 -12 1 -17c-20 -74 -73 -152 -66 -227c44 52 71 111 102 169c5 11 11 19 24 14s11 -14 8 -25
c-1 -5 -55 -170 -8 -167c27 2 67 83 92 131c-26 69 -16 235 72 225c49 -6 17 -106 7 -133c-13 -32 -30 -62 -49 -90c23 -74 92 -15 125 49l15 -8c-44 -87 -123 -121 -153 -65c-38 -67 -70 -127 -111 -132zM234 159c12 20 24 46 35 73c6 17 32 83 13 88
c-26 7 -62 -88 -48 -161z" />
    <glyph glyph-name="x.salt" horiz-adv-x="299" 
d="M14 171l-15 8l17 34c13 26 33 49 64 46c40 -3 48 -48 51 -104c38 36 73 77 90 136c4 20 24 23 22 4c-15 -71 -68 -125 -108 -166c4 -28 7 -64 14 -93c13 -60 41 -45 66 -8c30 45 68 120 84 153l15 -8c-23 -45 -54 -118 -87 -162c-39 -51 -82 -50 -110 8
c-13 29 -13 62 -16 90c-46 -36 -125 -60 -136 -153c-14 -2 -19 3 -18 16c14 97 97 115 152 162l-4 56c-6 53 -34 63 -62 15c-4 -8 -10 -19 -19 -34z" />
    <glyph glyph-name="y.salt" horiz-adv-x="326" 
d="M326 181l15 -8c-59 -109 -116 -173 -228 -233c-25 -85 -60 -144 -94 -182c-25 -29 -72 -55 -106 -52c-32 3 -53 34 -32 86c32 82 120 130 193 164c14 51 35 93 48 138c-16 -18 -30 -38 -47 -55c-16 -16 -32 -32 -51 -43c-26 -16 -49 -4 -56 26c-8 37 -2 73 10 108
c17 44 39 87 59 130c3 6 7 14 13 16c7 3 18 4 25 2c10 -4 9 -14 4 -23c-14 -26 -27 -52 -42 -78c-22 -36 -79 -208 -8 -156c36 26 62 65 87 101c37 54 68 112 101 168c18 27 24 34 25 33c6 -4 11 -15 9 -21c-4 -18 -11 -36 -19 -53c-42 -87 -77 -181 -108 -274
c80 35 153 113 202 206zM67 -74c-65 -31 -133 -76 -161 -138c-16 -39 -7 -62 11 -64c22 -2 57 23 75 48c34 44 60 106 75 154z" />
    <glyph glyph-name="z.salt" horiz-adv-x="319" 
d="M60 -75c-65 -31 -133 -76 -161 -138c-16 -39 -7 -62 11 -64c81 -7 154 132 150 202zM71 38c14 -51 21 -65 21 -78c91 33 182 138 227 221l15 -8c-47 -95 -126 -179 -238 -239c-7 -102 -49 -154 -80 -185c-27 -27 -76 -47 -110 -44c-32 3 -53 34 -32 86
c31 79 114 127 185 161c-5 26 -13 48 -22 71c-11 26 -8 44 13 63c17 16 32 35 47 53c20 23 33 52 37 82c0 10 -1 19 -3 25c-12 33 -55 9 -68 -4c-21 -20 -36 -51 -49 -71l-15 8c21 40 56 103 109 109c27 3 53 -9 64 -42c4 -12 5 -26 4 -40c-5 -35 -21 -65 -45 -91
c-17 -17 -35 -34 -51 -52c-5 -6 -11 -17 -9 -25z" />
    <glyph glyph-name="a.swsh" horiz-adv-x="440" 
d="M102 -72c-32 -12 -62 1 -65 48c0 26 1 44 14 84l17 47c-22 -24 -45 -51 -70 -68c-19 -12 -56 -23 -56 12c-2 53 40 119 82 153c7 5 14 10 22 14c29 15 51 11 73 -15c6 9 11 18 19 26c5 6 14 11 22 12c18 3 27 -6 18 -23l-61 -119c-24 -45 -32 -71 -39 -101
c-5 -37 1 -67 22 -56c90 47 164 217 274 200c43 -7 72 -42 65 -89c-4 -22 -15 -30 -19 -22c0 42 -15 81 -50 90c-82 21 -197 -166 -268 -193zM106 185c-10 11 -16 30 -50 5c-30 -24 -69 -74 -78 -119c-3 -14 0 -20 3 -21c25 -8 100 109 125 135z" />
    <glyph glyph-name="b.swsh" horiz-adv-x="341" 
d="M-53 346c23 -31 53 -57 88 -69c53 113 141 259 259 290c77 20 137 -21 96 -121c-54 -130 -199 -217 -325 -197l-2 -3h1c-28 -74 -48 -140 -59 -208c35 48 89 126 147 145c90 29 70 -97 49 -152c65 30 118 107 140 150l14 -10c-42 -83 -96 -137 -158 -164
c-26 -58 -62 -108 -118 -140c-18 -11 -38 -17 -59 -19c-27 -2 -39 20 -33 47c15 71 113 102 159 123c20 43 36 88 35 136c-1 80 -173 -132 -188 -157c-1 -2 -3 -6 -5 -7c-14 -3 -33 -9 -29 13c15 88 31 157 58 231l8 24c-32 11 -65 42 -92 76c-4 5 -1 27 14 12zM377 456
c35 81 -23 104 -84 82c-105 -38 -174 -169 -222 -270c122 -16 257 73 306 188zM134 -9c-39 -14 -76 -36 -105 -61c-23 -20 -40 -83 5 -57c47 27 74 68 100 118z" />
    <glyph glyph-name="c.swsh" horiz-adv-x="409" 
d="M129 34c-35 -30 -72 -44 -108 -31c-30 10 -46 32 -48 64c-4 62 18 116 66 159c22 20 49 29 77 26c10 -1 31 -7 26 -18c-28 1 -47 -8 -64 -23c-42 -39 -65 -85 -67 -141c0 -11 2 -22 7 -32c20 -45 86 -4 107 15c56 53 88 100 145 143c20 15 42 24 68 23
c43 -1 72 -30 71 -77c-1 -22 -11 -32 -16 -24c5 43 -20 76 -56 80c-72 8 -148 -113 -208 -164z" />
    <glyph glyph-name="d.swsh" horiz-adv-x="380" 
d="M110 375c4 -34 26 -85 55 -98l4 6c53 112 139 253 255 284c77 20 137 -21 96 -121c-54 -129 -197 -216 -322 -198c-10 -25 -15 -44 -20 -65c-16 -52 -35 -133 -26 -184c6 -37 18 -56 36 -60c69 -14 185 232 192 242l14 -10c-36 -70 -131 -255 -200 -245
c-63 9 -80 75 -82 126v23l-35 -39c-51 -57 -113 -54 -114 32c3 51 20 96 54 134c38 40 93 40 122 13c5 14 10 28 17 42c-35 27 -58 65 -66 113c-2 13 17 26 20 5zM507 456c35 81 -23 104 -84 82c-105 -38 -168 -170 -216 -271c122 -16 251 74 300 189zM57 43l55 58
c7 17 14 55 16 71c2 18 -2 31 -17 39c-38 17 -78 -76 -89 -102c-13 -29 -28 -133 35 -66z" />
    <glyph glyph-name="e.swsh" horiz-adv-x="384" 
d="M318 210c43 -1 67 -21 66 -68c-1 -22 -11 -32 -16 -24c5 43 -15 67 -51 71c-47 5 -95 -41 -139 -93c-43 -51 -91 -96 -144 -96c-11 -1 -22 0 -31 5c-32 15 -46 46 -40 85c9 56 40 102 79 142c27 27 75 25 72 -23c-4 -58 -57 -84 -106 -99c-8 -22 -7 -46 -4 -69
c5 -20 16 -23 29 -23c44 0 92 46 132 92s91 101 153 100zM11 125c34 9 72 44 79 77c5 24 -7 34 -23 16c-18 -21 -41 -49 -56 -93z" />
    <glyph glyph-name="f.swsh" horiz-adv-x="371" 
d="M47 15c-3 -89 -16 -182 -50 -267c-13 -29 -39 -79 -76 -73c-16 3 -22 15 -27 30c-11 45 -8 91 -2 136c16 102 45 201 90 297c38 94 84 186 146 271c13 21 30 41 49 59c8 8 21 14 34 17c22 5 33 -7 32 -29c0 -31 -15 -59 -29 -86c-44 -84 -101 -161 -176 -219
c12 3 26 7 32 11c72 35 167 131 249 105c41 -12 61 -48 48 -93c-7 -21 -20 -28 -22 -19c16 40 1 80 -33 92c-78 27 -163 -75 -248 -108c-9 -4 -17 -6 -24 -7c11 -45 8 -96 7 -117zM18 127l-18 -45c-39 -110 -77 -220 -83 -337c-3 -12 -2 -25 -1 -38c16 -50 53 25 61 40
c32 86 46 175 49 264c2 35 0 87 -8 116zM213 465c-74 -82 -130 -188 -174 -286c45 35 98 97 131 149c27 42 70 133 43 137z" />
    <glyph glyph-name="g.swsh" horiz-adv-x="233" 
d="M186 232l-90 -214l-18 -48c86 -15 158 -67 188 -117c7 -19 -2 -26 -14 -8c-36 55 -104 93 -180 106c-22 -64 -66 -151 -127 -205c-101 -90 -218 -16 -150 107c50 90 143 127 237 123l9 24c2 4 4 8 5 12c0 1 1 1 1 2c7 20 14 42 23 66c-24 -21 -58 -56 -86 -40
c-34 19 -15 81 -5 105c11 29 30 53 62 70c35 18 61 9 80 -28c10 21 18 33 28 49c13 17 48 28 37 -4zM28 -40c-90 0 -174 -41 -213 -122c-52 -108 22 -150 101 -67c49 52 97 137 112 189zM-4 51c36 3 90 75 106 102c7 13 -5 43 -18 50c-16 10 -29 -2 -40 -11
c-35 -31 -70 -97 -48 -141z" />
    <glyph glyph-name="h.swsh" horiz-adv-x="355" 
d="M-51 346c23 -31 53 -57 88 -69c53 113 141 259 259 290c77 20 137 -21 96 -121c-54 -129 -196 -215 -321 -198c-13 -33 -25 -66 -35 -100l-21 -69c15 15 25 27 36 37c20 19 41 37 62 54c12 10 26 13 41 3s13 -26 8 -40c-12 -28 -27 -56 -40 -85
c-22 -51 -72 -139 -34 -184c26 -26 63 2 83 20c55 57 144 224 184 297l14 -10c-44 -76 -131 -245 -192 -304c-51 -50 -141 -23 -134 49c10 72 57 163 88 226l3 10c-56 -36 -99 -97 -140 -141c-5 -5 -13 -11 -20 -11c-12 -2 -17 5 -15 18c12 73 31 143 58 211l10 29
c-32 11 -65 42 -92 76c-4 5 -1 27 14 12zM379 456c35 81 -23 104 -84 82c-101 -37 -163 -160 -211 -260c-1 -4 -3 -7 -5 -11c122 -16 251 74 300 189z" />
    <glyph glyph-name="i.swsh" horiz-adv-x="365" 
d="M41 -5c77 42 118 123 185 173c20 15 42 24 68 23c43 -1 72 -30 71 -77c-1 -22 -11 -32 -16 -24c5 43 -20 76 -56 80c-82 9 -146 -135 -223 -178c-31 -20 -61 -15 -80 14c-26 37 -22 89 -9 127c10 33 27 63 42 94c3 6 7 14 14 18c6 3 15 5 21 2c4 -1 7 -13 5 -18
c-12 -31 -27 -61 -36 -92c-10 -31 -31 -155 14 -142zM104 360c5 -8 -19 -35 -32 -47c-3 -2 -11 -2 -14 0c-12 12 6 41 14 50c10 11 22 11 32 -3z" />
    <glyph glyph-name="j.swsh" horiz-adv-x="113" 
d="M-60 14l40 6l-18 -48l-15 -43l-34 1c27 89 70 242 120 307c11 13 23 11 38 0c-40 -65 -66 -142 -91 -217l-18 -48c86 -15 167 -69 197 -119c7 -19 -2 -26 -14 -8c-36 55 -113 95 -189 108c-22 -64 -57 -153 -118 -207c-101 -90 -218 -16 -150 107c50 90 143 127 237 123
c6 16 12 29 15 38zM-79 -40c-90 0 -174 -41 -213 -122c-52 -108 22 -150 101 -67c49 52 97 137 112 189zM115 364c6 -8 -17 -35 -29 -47c-3 -2 -11 -2 -14 0c-13 12 4 41 11 50c9 11 21 11 32 -3z" />
    <glyph glyph-name="k.swsh" horiz-adv-x="346" 
d="M-53 346c23 -31 53 -57 88 -69c53 113 141 259 259 290c77 20 137 -21 96 -121c-54 -130 -199 -217 -325 -197c-26 -63 -50 -138 -56 -193c27 39 63 73 96 108c15 16 63 61 82 37c5 -8 4 -23 1 -32c-25 -54 -71 -74 -104 -78c-6 -45 0 -226 92 -158
c74 61 150 206 170 248l16 -6c-52 -103 -114 -203 -174 -249c-49 -39 -112 -26 -131 30c-11 35 -11 72 -8 105c-19 -20 -38 -47 -49 -70c-5 -10 -2 -17 -15 -14s-18 10 -16 24c9 81 20 161 49 236l7 21c-32 11 -65 42 -92 76c-4 5 -1 27 14 12zM377 456
c35 81 -23 104 -84 82c-105 -38 -171 -169 -219 -270c122 -16 254 73 303 188zM168 187c-29 -10 -56 -48 -78 -74c41 3 86 61 78 74z" />
    <glyph glyph-name="l.swsh" horiz-adv-x="293" 
d="M-53 346c23 -31 53 -57 87 -69l8 15c53 110 139 245 252 275c77 20 137 -21 96 -121c-54 -130 -197 -217 -323 -197l-9 -18c-22 -52 -23 -66 -31 -105c-9 -46 -13 -93 -3 -139c3 -16 7 -32 17 -46c88 -125 215 179 252 240l14 -10c-47 -79 -143 -310 -237 -277
c-35 12 -56 40 -72 73c-21 46 -19 94 -13 143c9 59 17 95 35 137l5 11c-32 11 -65 42 -92 76c-4 5 -1 27 14 12zM377 456c35 81 -23 104 -84 82c-105 -38 -170 -171 -218 -272c122 -16 253 75 302 190z" />
    <glyph glyph-name="m.swsh" horiz-adv-x="587" 
d="M325 -40c45 43 74 84 123 121c20 15 42 24 68 23c43 -1 72 -30 71 -77c-1 -22 -11 -32 -16 -24c5 43 -20 76 -56 80c-63 7 -126 -86 -184 -141c-67 -64 -158 -73 -151 29c3 35 17 66 34 96c21 38 43 76 62 116c-18 -18 -37 -36 -54 -56c-32 -36 -62 -74 -93 -111
c-5 -5 -9 -12 -14 -16c-7 -4 -18 -10 -23 -7c-26 17 2 78 11 99c16 34 66 114 66 136l-16 -14l-161 -179c-11 -11 -22 -24 -34 -33c-7 -5 -19 -6 -27 -3c-4 1 -7 17 -4 23c24 54 49 107 74 161c11 18 46 14 39 -3l-59 -127l27 33c47 49 85 95 129 143c18 18 48 48 64 39
c20 -14 7 -50 -1 -72c-7 -17 -16 -35 -25 -52c-19 -36 -40 -71 -60 -106c1 -1 2 -1 3 -1c46 50 94 107 141 157c10 20 64 38 56 -9c-8 -23 -19 -46 -31 -69c-32 -58 -72 -103 -74 -156c-3 -98 78 -35 115 0z" />
    <glyph glyph-name="n.swsh" horiz-adv-x="508" 
d="M238 -27c48 48 79 91 131 130c20 15 42 24 68 23c43 -1 72 -30 71 -77c-1 -22 -11 -32 -16 -24c5 43 -20 76 -56 80c-65 7 -132 -89 -189 -146c-29 -29 -62 -47 -87 -44c-68 8 -66 100 -48 144c24 56 74 128 62 135c-55 -32 -126 -122 -171 -167c-6 -7 -13 -12 -21 -15
c-17 -8 -35 5 -30 23c14 47 30 94 46 141c4 10 11 17 24 13s14 -15 11 -27c-4 -12 -39 -96 -33 -102c36 40 152 168 206 153c49 -32 -33 -120 -56 -188c-9 -27 -18 -79 5 -92s67 24 83 40z" />
    <glyph glyph-name="o.swsh" horiz-adv-x="411" 
d="M-2 -5c-30 11 -46 70 -33 107c7 21 23 46 35 60c-1 8 0 16 0 23c1 25 12 51 23 70c56 91 117 18 101 -63c-4 -20 -18 -67 -37 -110c26 -2 52 14 76 29c64 42 130 113 196 92c41 -12 61 -48 48 -93c-7 -21 -20 -28 -22 -19c16 40 1 80 -33 92c-61 21 -126 -50 -183 -87
c-29 -19 -60 -35 -91 -32c-22 -45 -51 -79 -80 -69zM66 87c0 -1 1 -1 2 -1c18 36 30 76 39 114c8 44 -10 116 -61 47c-41 -60 -32 -132 20 -160zM11 9c18 9 39 33 49 59c-1 0 -2 0 -3 1c-19 9 -32 25 -41 41c-24 -21 -29 -90 -5 -101z" />
    <glyph glyph-name="p.swsh" horiz-adv-x="499" 
d="M191 92c-33 -68 -59 -108 -114 -112c-25 -1 -39 20 -35 45c13 63 76 74 113 80c22 35 40 92 29 134c-136 -45 -325 -532 -361 -652c-14 -26 -32 -10 -29 0c53 234 91 373 225 633c5 10 16 19 24 9c17 -21 -92 -230 -120 -342c52 118 148 331 236 371
c65 30 72 -63 40 -144c72 35 166 133 248 107c41 -12 61 -48 48 -93c-7 -21 -20 -28 -22 -19c16 40 1 80 -33 92c-78 27 -163 -75 -248 -108zM146 84c-71 -4 -100 -74 -75 -83c26 -9 54 42 75 83z" />
    <glyph glyph-name="q.swsh" horiz-adv-x="461" 
d="M150 -69c7 -114 -19 -228 -76 -324c-9 -15 -21 -29 -35 -40c-27 -23 -60 -11 -68 24c-8 32 -3 64 5 95c20 76 55 146 89 217c36 74 76 147 108 221c-41 -47 -80 -91 -126 -127c-18 -15 -41 -25 -65 -12c-23 14 -25 39 -24 62c7 100 56 177 140 229c54 34 104 5 116 -68
l51 82c6 9 10 19 23 13c12 -6 11 -16 6 -26l-62 -124l-89 -183c14 7 27 16 34 22c56 53 88 86 145 129c20 15 42 24 68 23c43 -1 72 -30 71 -77c-1 -22 -16 -32 -21 -24c6 48 -11 78 -47 82c-72 8 -152 -101 -212 -152c-10 -8 -21 -15 -32 -20c1 -8 1 -17 1 -22zM22 2
c48 26 111 108 145 150c12 15 16 39 19 60c3 18 -1 39 -20 49c-20 11 -36 -4 -50 -15c-47 -38 -79 -87 -104 -140c-12 -26 -58 -138 10 -104zM130 -57c-42 -77 -78 -164 -115 -244c-15 -32 -25 -66 -23 -102c4 -28 19 -32 38 -16c13 13 26 28 35 44c59 96 70 216 65 318z
" />
    <glyph glyph-name="r.swsh" horiz-adv-x="423" 
d="M81 -97c-21 2 -42 14 -50 39c-8 26 -6 51 5 75c12 26 25 53 39 79c12 24 12 45 -9 67c-13 14 -29 25 -32 47l-21 -39l-15 8l78 153c6 11 15 12 25 8c11 -4 12 -12 8 -23l-25 -74c-8 -29 -5 -56 15 -80c19 -21 23 -45 13 -72c-12 -30 -25 -59 -36 -88
c-10 -25 -23 -78 6 -82c19 -5 44 16 57 27c56 53 88 100 145 143c20 15 42 24 68 23c43 -1 72 -30 71 -77c-1 -22 -11 -32 -16 -24c5 43 -20 76 -56 80c-72 8 -148 -113 -208 -164c-20 -17 -38 -26 -62 -26z" />
    <glyph glyph-name="s.swsh" horiz-adv-x="382" 
d="M4 -37c-32 -1 -50 4 -73 32c10 17 16 8 29 -2c20 -17 41 -10 53 31c23 75 -29 144 -15 213c5 21 21 28 35 19c4 -3 9 -11 7 -15c-27 -82 54 -156 -5 -253c34 14 59 30 82 53c45 46 76 87 126 125c20 15 42 24 68 23c43 -1 72 -30 71 -77c-1 -22 -11 -32 -16 -24
c5 43 -20 76 -56 80c-64 7 -132 -88 -188 -145c-36 -36 -79 -58 -118 -60z" />
    <glyph glyph-name="t.swsh" horiz-adv-x="211" 
d="M560 320c-26 -25 -69 -34 -102 -35c-125 -4 -259 64 -323 80l-13 -29c-46 -84 -92 -168 -114 -263c-4 -16 -4 -35 -2 -52c2 -22 17 -36 37 -43c66 -23 139 154 168 203l15 -8c-50 -97 -120 -251 -203 -208c-38 20 -60 63 -52 107c14 89 51 170 95 248l31 54l-5 2
c-43 14 -85 28 -129 31c-35 2 -70 -5 -104 -17c-17 -6 -42 -26 -55 -39c-11 -10 -22 -2 -18 9c25 30 55 47 90 56c62 14 122 6 181 -12c15 -5 39 -12 48 -12c9 14 16 24 24 38l57 96c8 16 37 15 28 -6c-13 -30 -28 -59 -42 -88c-15 -26 -23 -40 -29 -53
c89 -24 211 -82 315 -80c29 0 66 11 87 31c13 12 30 5 15 -10z" />
    <glyph glyph-name="u.swsh" horiz-adv-x="513" 
d="M229 -52c56 53 88 100 145 143c20 15 42 24 68 23c43 -1 72 -30 71 -77c-1 -22 -11 -32 -16 -24c5 43 -20 76 -56 80c-72 8 -148 -113 -208 -164c-47 -40 -106 -28 -120 30c-7 26 -5 52 1 79c6 26 3 17 15 54c-23 -30 -50 -59 -78 -82c-17 -14 -38 -19 -58 -8
c-20 10 -29 29 -29 51c0 69 29 126 71 178c8 10 18 12 31 2c-29 -66 -70 -127 -70 -196c1 -26 18 -34 37 -17c25 21 48 44 68 69c35 48 67 98 101 147c8 13 18 21 34 14c3 -2 6 -13 4 -18c-8 -20 -16 -40 -25 -60c-29 -66 -50 -105 -63 -177c-17 -76 26 -92 77 -47z" />
    <glyph glyph-name="v.swsh" horiz-adv-x="513" 
d="M161 82c-13 4 -24 14 -32 30c-33 -48 -51 -82 -84 -111c-29 -26 -56 -14 -62 23c-7 52 -3 104 15 154c4 12 10 18 23 14c12 -3 13 -12 11 -23c-4 -22 -39 -154 -15 -168c21 4 74 75 101 130c-28 62 -29 319 98 300c27 -4 38 -35 33 -68c-18 -88 -63 -157 -106 -229
c6 -19 15 -30 26 -33c23 -6 45 11 60 24c56 53 88 100 145 143c20 15 42 24 68 23c43 -1 72 -30 71 -77c-1 -22 -11 -32 -16 -24c5 43 -20 76 -56 80c-72 8 -148 -113 -208 -164c-20 -18 -48 -33 -72 -24zM139 160c55 85 89 154 86 224c-2 37 -34 1 -40 -8
c-42 -63 -47 -140 -46 -216z" />
    <glyph glyph-name="w.swsh" horiz-adv-x="590" 
d="M306 85c56 53 88 100 145 143c20 15 42 24 68 23c43 -1 72 -30 71 -77c-1 -22 -11 -32 -16 -24c5 43 -20 76 -56 80c-72 8 -148 -113 -208 -164c-21 -16 -38 -29 -64 -26c-8 1 -17 4 -25 9c-9 -14 -23 -40 -35 -58c-14 -20 -29 -41 -47 -58c-28 -28 -56 -19 -66 20
c-11 48 -6 93 2 138c-18 -32 -38 -61 -62 -87c-10 -11 -26 -19 -38 -9c-30 27 -14 86 -3 117c14 42 34 82 52 122c4 7 9 14 15 17c5 3 14 3 21 1c2 -1 3 -12 1 -17c-20 -74 -73 -152 -66 -227c44 52 71 111 102 169c5 11 11 19 24 14s11 -14 8 -25c-12 -44 -25 -88 -33 -133
c-1 -3 -17 -128 30 -86c36 33 54 70 75 112c-41 55 -39 119 -25 183c8 36 21 71 35 106c6 15 16 30 28 42c24 25 56 18 70 -14c33 -75 -40 -229 -73 -294l-8 -17c7 -4 13 -6 20 -7c23 -4 42 13 58 27zM275 384c-45 -33 -101 -234 -62 -299l15 34c32 73 90 193 47 265z" />
    <glyph glyph-name="x.swsh" horiz-adv-x="503" 
d="M111 37c-8 23 -8 48 -10 72c-46 -36 -138 -95 -149 -188c-14 -2 -19 3 -18 16c14 97 110 150 165 197l-4 56c-6 53 -34 63 -62 15c-4 -8 -10 -19 -19 -34l-15 8l17 34c13 26 33 49 64 46c40 -3 48 -48 51 -104c38 36 73 77 90 136c4 20 24 23 22 4
c-15 -71 -68 -125 -108 -166c5 -33 7 -67 17 -98c14 -40 45 -19 67 -2c56 53 88 100 145 143c20 15 42 24 68 23c43 -1 72 -30 71 -77c-1 -22 -11 -32 -16 -24c5 43 -20 76 -56 80c-72 8 -148 -113 -208 -164c-45 -39 -91 -34 -112 27z" />
    <glyph glyph-name="y.swsh" horiz-adv-x="279" 
d="M120 93c-16 -18 -26 -27 -43 -44c-16 -16 -32 -32 -51 -43c-26 -16 -49 -4 -56 26c-8 37 -6 62 6 97c17 44 39 87 59 130c3 6 7 14 13 16c7 3 18 4 25 2c10 -4 9 -14 4 -23c-14 -26 -27 -52 -42 -78c-22 -36 -75 -197 -4 -145c36 26 58 54 83 90c37 54 68 112 101 168
c6 8 10 18 17 25c5 5 6 11 8 8c6 -4 11 -15 9 -21c-4 -18 -11 -36 -19 -53c-37 -76 -68 -161 -96 -244l-5 -17l-5 -15c86 -15 167 -69 197 -119c7 -19 -2 -26 -14 -8c-36 55 -113 95 -189 108c-22 -64 -57 -153 -118 -207c-101 -90 -218 -16 -150 107c50 90 143 127 237 123
c11 39 21 79 33 117zM83 -40c-90 0 -174 -41 -213 -122c-52 -108 22 -150 101 -67c49 52 97 137 112 189z" />
    <glyph glyph-name="z.swsh" horiz-adv-x="242" 
d="M54 89c7 6 39 31 60 65c8 12 14 27 18 42c15 62 -28 88 -72 44c-12 -12 -27 -32 -46 -69l-15 8c30 61 73 129 142 98c24 -12 38 -37 35 -71c0 -49 -62 -123 -89 -135c34 -3 45 -55 32 -99c86 -15 167 -69 197 -119c7 -19 -2 -26 -14 -8c-36 55 -113 95 -189 108
c-22 -64 -57 -153 -118 -207c-101 -90 -218 -16 -150 107c50 90 143 127 237 123c7 16 28 83 -14 80c-34 -2 -26 22 -14 33zM78 -40c-90 0 -174 -41 -213 -122c-52 -108 22 -150 101 -67c49 52 97 137 112 189z" />
    <glyph glyph-name="a.st01" horiz-adv-x="1118" 
d="M1118 181l15 -8c-57 -100 -95 -153 -153 -221c-40 -47 -98 -42 -102 24c0 26 1 44 14 84l17 47c-22 -24 -45 -51 -70 -68c-19 -12 -56 -23 -56 12c-2 35 16 75 40 109c-53 -23 -110 -27 -167 -17c-64 11 -127 31 -191 43c-72 13 -157 22 -230 5
c-86 -20 -153 -64 -186 -149c-12 -33 -12 -54 -7 -70c4 -13 -15 -19 -19 -7c-2 2 -3 4 -3 7c-4 17 -4 28 -1 44c15 78 63 131 132 166c73 37 154 49 262 30c61 -11 117 -25 178 -40c47 -11 98 -22 147 -19c63 3 101 41 149 65c29 15 51 11 73 -15c6 9 11 18 19 26
c5 6 14 11 22 12c18 3 27 -6 18 -23l-61 -119c-24 -45 -32 -71 -39 -101c-7 -48 5 -81 45 -37c80 88 104 131 154 220zM947 185c-10 11 -16 30 -50 5c-30 -24 -69 -74 -78 -119c-3 -14 0 -20 3 -21c25 -8 100 109 125 135z" />
    <glyph glyph-name="b.st01" horiz-adv-x="1117" 
d="M781 38c35 48 89 126 147 145c90 29 70 -97 49 -152c65 30 118 107 140 150l14 -10c-42 -83 -96 -137 -158 -164c-26 -58 -62 -108 -118 -140c-18 -11 -38 -17 -59 -19c-27 -2 -39 20 -33 47c15 71 113 102 159 123c20 43 36 88 35 136c-1 80 -173 -132 -188 -157
c-1 -2 -3 -6 -5 -7c-14 -3 -33 -9 -29 13c7 49 17 97 30 143c-41 -10 -83 -11 -126 -3c-64 11 -127 31 -191 43c-72 13 -157 22 -230 5c-86 -20 -153 -64 -186 -149c-12 -33 -12 -54 -7 -70c4 -13 -15 -19 -19 -7c-2 2 -3 4 -3 7c-4 17 -4 28 -1 44c15 78 63 131 132 166
c73 37 154 49 262 30c61 -11 117 -25 178 -40c47 -11 98 -22 147 -19c17 1 33 4 49 9c39 135 100 260 184 376c46 63 130 145 179 81c68 -90 -138 -330 -274 -428c-5 -4 -11 -9 -16 -12l-28 -16c-1 0 -2 -1 -3 -1c-15 -34 -26 -94 -31 -124zM833 228l-16 -40
c155 96 333 319 304 398c-22 59 -86 -1 -106 -29c-74 -102 -135 -212 -182 -329zM910 -9c-39 -14 -76 -36 -105 -61c-23 -20 -40 -83 5 -57c47 27 74 68 100 118z" />
    <glyph glyph-name="c.st01" horiz-adv-x="1045" 
d="M1045 181l15 -8c-47 -93 -96 -154 -158 -172c-15 -4 -31 -4 -48 2c-30 10 -46 32 -48 64c-3 37 4 71 20 102c-58 -31 -122 -37 -186 -26s-127 31 -191 43c-72 13 -157 22 -230 5c-86 -20 -153 -64 -186 -149c-12 -33 -12 -54 -7 -70c4 -13 -15 -19 -19 -7c-2 2 -3 4 -3 7
c-4 17 -4 28 -1 44c15 78 63 131 132 166c73 37 154 49 262 30c61 -11 117 -25 178 -40c47 -11 98 -22 147 -19c65 4 109 36 150 73c22 20 49 29 77 26c10 -1 31 -7 26 -18c-28 1 -47 -8 -64 -23c-42 -39 -65 -85 -67 -141c0 -11 2 -22 7 -32c10 -23 26 -23 44 -18
c56 15 103 75 150 161z" />
    <glyph glyph-name="d.st01" horiz-adv-x="1157" 
d="M1157 181l14 -10c-36 -70 -119 -256 -200 -245c-63 8 -80 75 -82 126v23l-35 -39c-51 -57 -113 -54 -114 32c2 39 12 74 32 105c-194 -88 -378 60 -553 20c-86 -20 -153 -64 -186 -149c-12 -33 -12 -54 -7 -70c4 -13 -15 -19 -19 -7c-2 2 -3 4 -3 7c-4 17 -4 28 -1 44
c15 78 63 131 132 166c177 90 357 -35 540 -24c46 3 87 21 126 48c11 10 23 17 35 21c30 10 61 3 81 -15c41 119 96 226 180 321c73 84 166 106 148 -34c-20 -147 -208 -307 -303 -385c-10 -22 -18 -90 -13 -117c6 -37 18 -56 36 -60c69 -14 185 232 192 242zM948 147
c123 111 289 249 269 418c-18 36 -67 -20 -81 -36c-92 -111 -147 -246 -188 -382zM834 43l55 58c7 17 14 55 16 71c2 18 -2 31 -17 39c-38 17 -78 -76 -89 -102c-13 -29 -28 -133 35 -66z" />
    <glyph glyph-name="e.st01" horiz-adv-x="971" 
d="M971 181l15 -8c-18 -36 -99 -201 -168 -207c-62 -5 -74 78 -69 125c-36 -7 -73 -7 -110 0c-64 11 -127 31 -191 43c-72 13 -157 22 -230 5c-86 -20 -153 -64 -186 -149c-12 -33 -12 -54 -7 -70c4 -13 -15 -19 -19 -7c-2 2 -3 4 -3 7c-4 17 -4 28 -1 44
c15 78 63 131 132 166c73 37 154 49 262 30c61 -11 117 -25 178 -40c47 -11 98 -22 147 -19c10 0 20 2 30 4c13 52 75 155 138 142c14 -3 22 -17 19 -38c-7 -43 -49 -77 -91 -96c-5 -3 -11 -5 -17 -8c-8 -16 -31 -127 19 -123c55 3 131 157 152 199zM805 125c8 4 16 8 24 13
c5 3 10 6 15 10c20 15 35 33 40 54c3 12 4 28 -1 31c-16 12 -72 -79 -78 -108z" />
    <glyph glyph-name="f.st01" horiz-adv-x="994" 
d="M994 181l15 -8c-39 -81 -108 -114 -173 -70c1 -34 2 -58 1 -88c-3 -89 -16 -182 -50 -267c-13 -29 -39 -79 -76 -73c-16 3 -22 15 -27 30c-11 45 -8 91 -2 136c16 102 45 201 90 297c0 2 1 3 2 5c-43 -10 -87 -10 -131 0c-64 13 -126 35 -190 48c-72 15 -156 27 -230 12
c-86 -17 -155 -59 -189 -143c-14 -33 -14 -54 -10 -70c4 -13 -15 -19 -19 -7c-2 2 -2 4 -3 7c-3 18 -3 29 0 44c18 79 68 130 138 163c74 35 154 44 262 22c61 -12 116 -28 177 -45c46 -12 97 -25 146 -23c19 0 38 4 56 9c36 86 80 171 137 249c13 21 30 41 49 59
c8 8 21 14 34 17c22 5 33 -7 32 -29c-3 -69 -82 -187 -123 -231c-25 -27 -53 -50 -86 -64c49 -88 133 -65 170 20zM808 127l-18 -45c-39 -110 -77 -220 -83 -337c-3 -12 -2 -25 -1 -38c16 -50 53 25 61 40c40 107 51 218 50 329c-1 15 -1 37 -9 51zM1003 465
c-74 -82 -126 -184 -170 -282c25 17 43 34 60 53c51 57 98 128 116 196c5 18 4 32 -6 33z" />
    <glyph glyph-name="g.st01" horiz-adv-x="1145" 
d="M1145 181l15 -8c-52 -99 -137 -179 -241 -208c-24 -48 -64 -140 -117 -199c-27 -31 -56 -66 -94 -73c-47 -6 -73 21 -65 68c7 36 24 67 49 93c45 48 99 83 159 110c8 3 17 11 20 19c14 30 25 61 39 97c-24 -21 -58 -56 -86 -40c-34 19 -15 81 -5 105c1 3 2 7 4 10
c-58 -31 -122 -39 -186 -28s-125 35 -189 47c-72 13 -157 22 -230 5c-86 -20 -153 -64 -186 -149c-12 -33 -12 -54 -7 -70c4 -13 -15 -19 -19 -7c-6 7 -6 23 -6 32c0 6 1 12 2 19c15 78 63 131 132 166c73 37 154 49 262 30c61 -11 117 -25 178 -40c47 -11 98 -22 147 -19
c46 3 87 21 125 48c36 38 88 49 115 -2c10 21 18 33 28 49c13 17 54 26 43 -6l-104 -240c81 24 167 94 217 191zM855 -58c-12 -2 -29 -9 -36 -13c-53 -31 -104 -65 -138 -119c-14 -23 -21 -47 -17 -74c10 -46 58 -25 76 1c21 27 41 55 58 85c21 38 38 80 57 120zM836 51
c36 3 90 75 106 102c7 13 -5 43 -18 50c-16 10 -29 -2 -40 -11c-35 -31 -70 -97 -48 -141z" />
    <glyph glyph-name="h.st01" horiz-adv-x="1105" 
d="M1105 181l14 -10c-44 -76 -131 -245 -192 -304c-51 -50 -141 -23 -134 49c10 72 57 163 88 226c-9 17 -96 -87 -137 -131c-5 -5 -13 -11 -20 -11c-12 -2 -17 5 -15 18c8 50 19 99 35 147c-36 -8 -73 -8 -110 -3c-64 9 -127 27 -192 37c-72 11 -157 18 -230 -1
c-85 -23 -151 -69 -181 -155c-11 -33 -11 -54 -5 -70c4 -13 -15 -19 -19 -7c-2 1 -3 3 -3 6c-5 17 -5 28 -3 44c13 79 60 133 128 170c71 39 152 54 261 38c61 -9 117 -22 179 -35c47 -10 98 -19 147 -15c11 1 22 3 33 6c13 40 30 80 49 119c45 96 123 271 211 313
c43 17 76 -4 78 -51c-9 -154 -163 -316 -288 -379c-9 -17 -28 -84 -34 -103c15 15 25 27 36 37c20 19 41 37 62 54c12 10 26 13 41 3s13 -26 8 -40c-12 -28 -27 -56 -40 -85c-22 -51 -72 -139 -34 -184c26 -26 63 2 83 20c55 57 144 224 184 297zM807 204
c108 68 237 211 250 330c2 22 0 43 -17 59c-50 -25 -204 -279 -233 -389z" />
    <glyph glyph-name="i.st01" horiz-adv-x="1000" 
d="M1000 181l15 -8c-31 -64 -79 -144 -113 -172c-35 -29 -71 -28 -92 5c-26 37 -22 89 -9 127c8 26 20 50 32 74c-100 -57 -188 -26 -344 28c-83 29 -178 39 -263 23c-86 -17 -155 -58 -192 -141c-13 -33 -14 -54 -10 -70c4 -13 -15 -18 -19 -6c-2 2 -3 4 -3 7
c-3 17 -2 28 1 44c18 77 69 128 139 160c74 34 156 43 263 20c30 -7 58 -12 87 -22c154 -52 252 -94 356 -13c6 9 21 14 30 10c4 -1 7 -13 5 -18c-12 -31 -27 -61 -36 -92c-12 -36 -39 -199 43 -123c50 46 109 165 110 167zM924 360c5 -8 -19 -35 -32 -47
c-3 -2 -11 -2 -14 0c-12 12 6 41 14 50c10 11 22 11 32 -3z" />
    <glyph glyph-name="j.st01" horiz-adv-x="919" 
d="M919 181l14 -10c-51 -116 -117 -248 -251 -280c-20 -59 -49 -120 -96 -160c-40 -33 -113 -59 -126 14c-5 89 119 155 190 166c18 60 47 164 81 244c-73 -67 -165 -66 -316 -65c-88 1 -181 -20 -257 -62c-76 -44 -128 -105 -136 -195c-2 -35 4 -56 12 -70
c8 -11 -8 -21 -16 -11c-2 1 -4 3 -5 5c-8 16 -11 26 -13 42c-7 79 25 144 81 196c59 56 134 91 243 103c30 3 58 8 89 7c157 1 276 2 363 132c14 17 43 9 29 -15c-53 -92 -82 -198 -116 -303c107 14 189 177 230 262zM643 -112c-51 -10 -107 -44 -136 -80
c-11 -14 -20 -32 -24 -50c-2 -48 31 -50 60 -29c52 38 80 96 100 159zM858 364c6 -8 -17 -35 -29 -47c-3 -2 -11 -2 -14 0c-13 12 4 41 11 50c9 11 21 11 32 -3z" />
    <glyph glyph-name="k.st01" horiz-adv-x="1078" 
d="M1078 181l16 -6c-52 -103 -114 -203 -174 -249c-49 -39 -112 -26 -131 30c-11 35 -11 72 -8 105c-19 -20 -38 -47 -49 -70c-5 -10 -2 -17 -15 -14s-18 10 -16 24c6 59 15 118 30 176c-85 -6 -172 18 -251 42c-84 26 -177 36 -262 16s-152 -64 -186 -148
c-12 -34 -12 -55 -7 -70c4 -13 -12 -18 -19 -7c-8 13 -6 38 -4 51c15 77 64 130 133 165c109 56 241 46 349 12c87 -25 171 -54 251 -44c32 127 97 252 175 356c28 38 48 66 90 91c117 61 118 -53 82 -134c-65 -147 -218 -299 -308 -323c-13 -38 -30 -94 -33 -128
c27 39 63 73 96 108c15 16 63 61 82 37c5 -8 4 -23 1 -32c-25 -54 -71 -74 -104 -78c-6 -45 0 -226 92 -158c74 61 150 206 170 248zM779 205c106 49 229 182 284 315c21 51 12 144 -32 105c-22 -19 -42 -41 -60 -65c-56 -72 -98 -154 -141 -234c-20 -39 -25 -52 -51 -121z
M900 187c-29 -10 -56 -48 -78 -74c41 3 86 61 78 74z" />
    <glyph glyph-name="l.st01" horiz-adv-x="1075" 
d="M1075 181l14 -10c-47 -79 -143 -310 -237 -277c-35 12 -56 40 -72 73c-21 46 -19 94 -13 143c1 12 3 25 6 37c-27 -8 -54 -11 -83 -9c-58 3 -126 17 -210 42c-84 26 -177 36 -262 16s-152 -64 -186 -148c-12 -34 -12 -55 -7 -70c4 -13 -12 -18 -19 -7c-8 13 -6 38 -4 51
c15 77 64 130 133 165c109 56 241 46 349 12c81 -24 147 -42 205 -45c31 -2 60 2 88 12c16 66 43 128 75 188c38 72 78 143 129 207c18 21 39 42 61 59c33 24 66 7 72 -33c5 -31 -5 -60 -17 -87c-61 -135 -153 -259 -277 -334c-11 -51 -25 -128 -14 -179c3 -16 7 -32 17 -46
c88 -125 215 179 252 240zM1033 563c-96 -122 -162 -243 -209 -374c120 89 202 195 256 324c26 66 9 122 -47 50z" />
    <glyph glyph-name="m.st01" horiz-adv-x="1304" 
d="M1304 181l14 -10c-47 -93 -157 -290 -236 -281c-38 4 -62 39 -59 81c3 35 17 66 34 96c21 38 43 76 62 116c-18 -18 -37 -36 -54 -56c-32 -36 -62 -74 -93 -111c-5 -5 -9 -12 -14 -16c-7 -4 -18 -10 -23 -7c-26 17 2 78 11 99c16 34 66 114 66 136l-16 -14l-161 -179
c-11 -11 -22 -24 -34 -33c-7 -5 -19 -6 -27 -3c-4 1 -7 17 -4 23c19 44 40 87 60 131c-42 -26 -86 -40 -131 -41c-89 0 -155 30 -219 49c-84 26 -177 36 -262 16s-152 -64 -186 -148c-12 -34 -12 -55 -7 -70c4 -13 -12 -18 -19 -7c-8 13 -6 38 -4 51c15 77 64 130 133 165
c109 56 241 46 349 12c81 -24 154 -54 213 -51c55 3 96 16 143 53c3 2 6 5 9 7l3 2c15 8 36 2 31 -11l-59 -127l27 33c47 49 85 95 129 143c18 18 48 48 64 39c20 -14 7 -50 -1 -72c-7 -17 -16 -35 -25 -52c-19 -36 -40 -71 -60 -106c1 -1 2 -1 3 -1c46 50 94 107 141 157
c10 20 64 38 56 -9c-8 -23 -19 -46 -31 -69c-36 -66 -72 -111 -72 -175c-1 -30 29 -40 58 -29c70 27 190 267 191 269z" />
    <glyph glyph-name="n.st01" horiz-adv-x="1210" 
d="M836 179c30 29 44 2 38 -17c-4 -12 -26 -85 -33 -102c36 40 152 168 206 153c49 -32 -33 -120 -56 -188c-12 -34 -27 -113 30 -93c62 22 167 214 189 249l14 -10c-41 -71 -144 -265 -223 -256c-68 7 -66 100 -48 144c24 56 74 128 62 135c-55 -32 -126 -122 -171 -167
c-6 -7 -13 -12 -21 -15c-17 -8 -35 5 -30 23l38 119c-42 -27 -87 -41 -132 -42c-89 0 -155 30 -219 49c-84 26 -177 36 -262 16s-152 -64 -186 -148c-12 -34 -12 -55 -7 -70c4 -13 -12 -18 -19 -7c-8 13 -6 38 -4 51c15 77 64 130 133 165c109 56 241 46 349 12
c81 -24 154 -54 213 -51c53 3 93 14 139 50z" />
    <glyph glyph-name="o.st01" horiz-adv-x="1047" 
d="M1047 181l15 -8c-30 -54 -79 -130 -136 -113c-12 -26 -45 -77 -79 -65c-30 11 -46 70 -33 107c2 8 6 16 11 25c-93 -47 -165 -34 -256 -10c-40 10 -80 20 -121 28c-72 13 -157 22 -230 5c-86 -20 -153 -64 -186 -149c-12 -33 -12 -54 -7 -70c4 -13 -15 -19 -19 -7
c-4 5 -6 16 -6 22c-1 10 0 18 2 29c15 78 63 131 132 166c73 37 154 49 262 30c61 -11 117 -25 178 -40c96 -23 179 -37 273 29c0 1 1 1 2 2c-1 8 0 16 0 23c1 25 12 51 23 70c56 91 117 18 101 -63c-8 -43 -27 -90 -40 -116c45 -18 101 82 114 105zM917 86
c18 36 30 76 39 114c8 44 -10 116 -61 47c-41 -61 -32 -133 22 -161zM860 9c18 9 39 33 49 59c-20 9 -34 25 -44 42c-24 -21 -29 -90 -5 -101z" />
    <glyph glyph-name="p.st01" horiz-adv-x="1161" 
d="M1161 181l15 -8c-36 -63 -110 -85 -153 -88c-27 -53 -53 -101 -113 -105c-25 -1 -39 20 -35 45c13 63 78 78 113 80c22 35 40 92 29 134c-136 -45 -325 -532 -361 -652c-14 -26 -32 -10 -29 0c49 216 82 353 195 574c22 43 15 30 -24 15c-80 -31 -147 -17 -228 2
c-101 23 -172 40 -245 42c-36 1 -72 -1 -106 -9c-86 -20 -153 -64 -186 -149c-12 -33 -12 -54 -7 -70c4 -13 -15 -19 -19 -7c-4 5 -6 16 -6 22c-1 10 0 18 2 29c15 78 63 131 132 166c73 37 154 49 262 30c61 -11 117 -25 178 -40c87 -21 165 -36 249 13c12 7 41 38 52 24
c17 -21 -92 -230 -120 -342c52 118 148 331 236 371c63 29 74 -58 38 -149c58 4 111 35 131 72zM979 84c-71 -4 -100 -74 -75 -83c26 -9 54 42 75 83z" />
    <glyph glyph-name="q.st01" horiz-adv-x="1145" 
d="M1145 181l15 -8c-40 -76 -146 -263 -248 -227c10 -119 -16 -239 -75 -339c-9 -15 -21 -29 -35 -40c-27 -23 -60 -11 -68 24c-8 32 -3 64 5 95c20 76 55 146 89 217c36 74 76 147 108 221c-41 -47 -80 -91 -126 -127c-18 -15 -41 -25 -65 -12c-23 14 -25 39 -24 62
c2 37 11 71 25 102c-69 -46 -156 -45 -290 -44c-88 1 -181 -20 -257 -62c-76 -44 -128 -105 -136 -195c-2 -35 4 -56 12 -70c8 -11 -8 -21 -16 -11c-2 1 -4 3 -5 5c-8 16 -11 26 -13 42c-7 79 25 144 81 196c59 56 134 91 243 103c30 3 58 8 89 7c147 1 248 6 319 76
c36 45 104 119 162 86c21 -12 36 -38 42 -74l51 82c6 9 10 19 23 13c12 -6 11 -16 6 -26l-62 -124l-89 -183c108 -56 208 160 239 211zM785 2c48 26 111 108 145 150c21 26 25 94 -1 109c-8 5 -36 -4 -50 -15c-47 -38 -79 -87 -104 -140c-12 -26 -58 -138 10 -104zM893 -57
c-42 -77 -78 -164 -115 -244c-15 -32 -25 -66 -23 -102c4 -28 19 -32 38 -16c13 13 26 28 35 44c59 96 70 216 65 318z" />
    <glyph glyph-name="r.st01" horiz-adv-x="1002" 
d="M811 332c4 11 15 12 25 8c11 -4 12 -12 8 -23l-25 -74c-8 -29 -5 -56 15 -80c19 -21 23 -45 13 -72c-12 -30 -25 -59 -36 -88c-11 -28 -27 -93 20 -81c8 2 16 6 24 12c57 44 111 180 147 247c0 0 2 -2 15 -8c-34 -67 -86 -202 -148 -251c-11 -8 -24 -17 -37 -21
c-29 -8 -56 9 -66 41c-8 26 -6 51 5 75c12 26 25 53 39 79c12 24 12 45 -9 67c-13 14 -29 24 -32 46c-23 -31 -47 -53 -74 -69c-67 -39 -153 -39 -279 -38c-88 1 -181 -20 -257 -62c-76 -44 -128 -105 -136 -195c-2 -35 4 -56 12 -70c8 -11 -8 -21 -16 -11c-2 1 -4 3 -5 5
c-8 16 -11 26 -13 42c-7 79 25 144 81 196c59 56 134 91 243 103c30 3 58 8 89 7c115 1 203 5 269 40c62 37 103 111 128 175z" />
    <glyph glyph-name="s.st01" horiz-adv-x="1066" 
d="M1066 181l15 -8c-45 -89 -128 -205 -230 -210c-32 -1 -50 4 -73 32c10 17 16 8 29 -2c20 -17 41 -10 53 31c21 68 -20 132 -17 195c-117 -108 -253 -42 -388 -31c-158 12 -351 -17 -396 -191c-8 -33 -6 -54 1 -70c5 -12 -13 -20 -18 -8c-2 0 -3 2 -4 5c-6 17 -7 28 -6 44
c6 80 48 138 112 180c97 64 209 67 315 56c135 -15 287 -72 382 34c12 12 19 29 39 18c4 -3 9 -11 7 -15c-27 -82 54 -156 -5 -253c78 29 135 97 184 193z" />
    <glyph glyph-name="t.st01" horiz-adv-x="1060" 
d="M1060 181l15 -8c-50 -97 -120 -251 -203 -208c-74 39 -53 125 -34 186c-34 -33 -91 -46 -139 -47c-89 0 -155 30 -219 49c-84 26 -177 36 -262 16s-152 -64 -186 -148c-12 -34 -12 -55 -7 -70c4 -13 -12 -18 -19 -7c-8 13 -6 38 -4 51c15 77 64 130 133 165
c109 56 241 46 349 12c81 -24 154 -54 213 -51c58 3 116 19 146 64c25 37 51 98 72 135l31 54c-45 15 -88 30 -134 33c-35 2 -70 -5 -104 -17c-17 -6 -42 -26 -55 -39c-11 -10 -22 -2 -18 9c25 30 55 47 90 56c62 14 122 6 181 -12c15 -5 39 -12 48 -12c9 14 16 24 24 38
l57 96c8 16 37 15 28 -6c-13 -30 -28 -59 -42 -88l-28 -53c46 -13 89 -25 133 -9c12 5 24 16 31 27c8 13 12 17 24 7c-5 -21 -21 -40 -40 -47c-42 -16 -79 -9 -122 -1c-11 2 -21 5 -33 8c-51 -94 -104 -186 -129 -291c-10 -39 -4 -81 35 -95c66 -23 139 154 168 203z" />
    <glyph glyph-name="u.st01" horiz-adv-x="1176" 
d="M1176 181l15 -8c-38 -68 -92 -178 -163 -254c-30 -29 -70 -21 -91 16c-19 32 -17 68 -9 103c6 26 3 17 15 54c-23 -30 -50 -59 -78 -82c-17 -14 -38 -19 -58 -8c-20 10 -29 29 -29 51c0 50 15 94 40 135c-39 -22 -79 -33 -119 -34c-89 0 -155 30 -219 49
c-84 26 -177 36 -262 16s-152 -64 -186 -148c-12 -34 -12 -55 -7 -70c4 -13 -12 -18 -19 -7c-8 13 -6 38 -4 51c15 77 64 130 133 165c109 56 241 46 349 12c81 -24 154 -54 213 -51c58 3 101 17 152 60c30 20 30 -3 18 -27c-27 -55 -57 -108 -57 -167c1 -26 18 -34 37 -17
c25 21 48 44 68 69c35 48 67 98 101 147c13 21 48 21 38 -4c-8 -20 -16 -40 -25 -60c-29 -66 -50 -105 -63 -177c-4 -19 -2 -41 3 -60c6 -22 24 -25 40 -11c66 55 164 250 167 257z" />
    <glyph glyph-name="v.st01" horiz-adv-x="1118" 
d="M1118 181l15 -8c-55 -93 -127 -124 -159 -61c-33 -48 -51 -82 -84 -111c-29 -26 -56 -14 -62 23c-6 45 -4 90 8 133c-44 -28 -90 -44 -137 -45c-89 0 -155 30 -219 49c-84 26 -177 36 -262 16s-152 -64 -186 -148c-12 -34 -12 -55 -7 -70c4 -13 -12 -18 -19 -7
c-8 13 -6 38 -4 51c15 77 64 130 133 165c109 56 241 46 349 12c81 -24 154 -54 213 -51c54 3 95 16 141 52c22 17 41 -1 39 -12c-4 -22 -39 -154 -15 -168c21 4 74 75 101 130c-28 62 -29 319 98 300c27 -4 38 -35 33 -68c-18 -88 -63 -157 -106 -229c22 -76 104 -7 130 47
zM984 160c55 85 89 154 86 224c-2 37 -34 1 -40 -8c-42 -63 -47 -140 -46 -216z" />
    <glyph glyph-name="w.st01" horiz-adv-x="1184" 
d="M1184 181l15 -8c-44 -87 -104 -160 -168 -124c-9 -14 -23 -40 -35 -58c-14 -20 -29 -41 -47 -58c-28 -28 -56 -19 -66 20c-11 48 -6 93 2 138c-18 -32 -38 -61 -62 -87c-10 -11 -26 -19 -38 -9c-30 27 -14 86 -3 117c11 34 26 67 41 99c-40 -23 -82 -36 -124 -37
c-89 0 -155 30 -219 49c-84 26 -177 36 -262 16s-152 -64 -186 -148c-12 -34 -12 -55 -7 -70c4 -13 -12 -18 -19 -7c-8 13 -6 38 -4 51c15 77 64 130 133 165c109 56 241 46 349 12c81 -24 154 -54 213 -51c42 2 79 14 113 33c19 9 33 28 52 26c5 -1 11 -5 9 -15
c-17 -75 -73 -152 -66 -227c44 52 71 111 102 169c5 11 11 19 24 14s11 -14 8 -25c-12 -44 -25 -88 -33 -133c-1 -3 -17 -128 30 -86c36 33 54 70 75 112c-41 55 -39 119 -25 183c8 36 21 71 35 106c6 15 16 30 28 42c24 25 56 18 70 -14c33 -75 -40 -229 -73 -294l-8 -17
c68 -41 145 113 146 116zM1085 384c-45 -33 -101 -234 -62 -299l15 34c32 73 90 193 47 265z" />
    <glyph glyph-name="x.st01" horiz-adv-x="1032" 
d="M813 259c40 -3 48 -48 51 -104c38 36 73 77 90 136c4 20 24 23 22 4c-15 -71 -68 -125 -108 -166c5 -33 7 -67 17 -98c22 -68 75 19 87 41c27 46 59 108 60 109l15 -8c-21 -37 -40 -78 -60 -113c-23 -39 -56 -98 -104 -70c-48 30 -45 77 -49 119
c-46 -36 -138 -95 -149 -188c-14 -2 -19 3 -18 16c14 97 110 150 165 197l-4 56c-12 89 -66 6 -94 -18c-75 -67 -166 -71 -319 -70c-88 1 -181 -20 -257 -62c-76 -44 -128 -105 -136 -195c-2 -35 4 -56 12 -70c8 -11 -8 -21 -16 -11c-2 1 -4 3 -5 5c-8 16 -11 26 -13 42
c-7 79 25 144 81 196c59 56 134 91 243 103c30 3 58 8 89 7c139 1 239 1 309 64c28 28 47 82 91 78z" />
    <glyph glyph-name="y.st01" horiz-adv-x="1150" 
d="M833 20c36 26 62 65 87 101c37 54 68 112 101 168c31 28 27 -23 15 -41c-53 -110 -91 -233 -129 -352c121 43 228 252 243 285c3 -2 12 -4 16 -6c-81 -155 -158 -263 -267 -303c-23 -63 -51 -134 -95 -186c-45 -51 -90 -100 -154 -61c-30 19 -42 50 -35 84
c11 56 49 91 96 119c42 25 103 43 150 55c25 60 44 140 65 210c-16 -18 -30 -38 -47 -55c-16 -16 -32 -32 -51 -43c-26 -16 -49 -4 -56 26c-8 37 -2 73 10 108c14 36 31 72 48 107c-42 -26 -86 -40 -131 -41c-89 0 -155 30 -219 49c-84 26 -177 36 -262 16
s-152 -64 -186 -148c-12 -34 -12 -55 -7 -70c4 -13 -12 -18 -19 -7c-8 13 -6 38 -4 51c15 77 64 130 133 165c109 56 241 46 349 12c81 -24 154 -54 213 -51c54 3 95 15 141 51c13 10 24 19 41 14c10 -4 9 -14 4 -23c-14 -26 -27 -52 -42 -78c-22 -36 -79 -208 -8 -156z
M858 -136c-40 -15 -88 -28 -127 -45c-29 -13 -54 -33 -71 -60c-11 -17 -19 -35 -24 -54c-7 -27 3 -52 22 -63c83 -47 185 167 200 222z" />
    <glyph glyph-name="z.st01" horiz-adv-x="1055" 
d="M909 246c4 -12 5 -26 4 -40c-5 -35 -21 -65 -45 -91c-17 -17 -35 -34 -51 -52c-5 -6 -11 -17 -9 -25c7 -38 21 -53 26 -116c101 30 172 162 221 259l16 -6c-67 -136 -135 -247 -237 -273c-3 -36 -4 -69 -10 -102c-12 -70 -38 -136 -82 -192c-36 -46 -86 -69 -144 -63
c-43 4 -73 36 -78 79c-8 57 14 105 51 145c66 73 143 117 227 144c0 38 -8 75 -24 110c-11 26 -8 44 13 63c17 16 32 35 47 53c20 23 33 52 37 82c0 10 -1 19 -4 26c-22 55 -98 -41 -109 -53c-80 -88 -173 -93 -342 -92c-88 1 -181 -20 -257 -62
c-76 -44 -128 -105 -136 -195c-2 -35 4 -56 12 -70c8 -11 -8 -21 -16 -11c-2 1 -4 3 -5 5c-8 16 -11 26 -13 42c-7 79 25 144 81 196c59 56 134 91 243 103c30 3 58 8 89 7c151 1 255 3 326 82c29 36 116 151 169 47zM799 -112c-70 -16 -154 -69 -204 -128
c-37 -45 -81 -155 -16 -191c38 -22 98 10 120 39c39 51 67 110 82 173c9 34 12 70 18 107z" />
    <glyph glyph-name="a.en01" horiz-adv-x="907" 
d="M833 -12c39 30 50 58 49 90c-1 34 -37 52 -61 56c-154 22 -315 -73 -446 -142c-65 -34 -122 -61 -193 -74c-23 -4 -47 -5 -70 -2c-33 3 -56 22 -64 51c-7 20 -4 45 -1 64c4 21 12 49 30 87c-25 -30 -54 -62 -79 -79c-19 -12 -56 -23 -56 12c-2 53 40 119 82 153
c7 5 14 10 22 14c29 15 51 11 73 -15c6 9 11 18 19 26c5 6 14 11 22 12c18 3 27 -6 18 -23c-38 -73 -93 -150 -93 -230c1 -34 21 -52 54 -53c52 -2 99 15 145 34c41 18 66 30 92 45c139 79 322 173 463 133c86 -24 84 -122 23 -159c-19 -12 -32 -8 -29 0zM106 185
c-10 11 -16 30 -50 5c-30 -24 -69 -74 -78 -119c-3 -14 0 -20 3 -21c25 -8 100 109 125 135z" />
    <glyph glyph-name="b.en01" horiz-adv-x="827" 
d="M199 24l-3 -11c-26 -58 -61 -114 -117 -146c-18 -11 -38 -17 -59 -19c-27 -2 -39 20 -33 47c15 71 114 103 160 124c20 43 35 87 34 135c-1 80 -173 -132 -188 -157c-1 -2 -3 -6 -5 -7c-14 -3 -33 -9 -29 13c31 198 104 376 219 535c46 63 130 145 179 81
c77 -101 -193 -392 -321 -457c-15 -34 -26 -94 -31 -124c35 48 89 126 147 145c81 26 72 -75 54 -136c134 73 286 177 435 203c34 6 73 9 110 1c87 -21 95 -111 39 -155c-18 -14 -31 -12 -29 -3c35 34 43 62 38 94c-13 83 -173 41 -219 26c-136 -44 -268 -132 -381 -189z
M57 228l-16 -40c155 96 333 319 304 398c-22 59 -86 -1 -106 -29c-74 -102 -135 -212 -182 -329zM139 -4c-39 -14 -81 -41 -110 -66c-23 -20 -40 -83 5 -57c47 27 79 73 105 123z" />
    <glyph glyph-name="c.en01" horiz-adv-x="826" 
d="M-28 112c8 43 29 84 63 114c22 20 49 29 77 26c10 -1 31 -7 26 -18c-28 1 -47 -8 -64 -23c-29 -27 -55 -63 -65 -101c-11 -56 0 -122 87 -93c58 17 129 56 154 69c78 43 143 79 211 107c90 37 289 88 351 -23c22 -39 7 -93 -34 -118c-19 -12 -32 -8 -29 0
c32 27 57 72 45 107c-40 112 -259 47 -324 18c-73 -30 -140 -70 -213 -110c-35 -19 -95 -51 -151 -68c-104 -29 -155 19 -134 113z" />
    <glyph glyph-name="d.en01" horiz-adv-x="995" 
d="M922 73c39 30 50 58 49 90c-1 25 -15 41 -38 51c-9 4 -87 40 -259 -27c-97 -31 -178 -81 -269 -131c-58 -32 -188 -99 -251 -71c-26 11 -39 39 -43 86v3l-34 -38c-51 -57 -113 -54 -114 32c3 51 20 96 54 134c38 39 93 39 122 12c1 3 2 6 4 9c40 116 95 219 177 312
c73 84 166 106 148 -34c-20 -147 -208 -307 -303 -385l-1 -3c-3 -15 -3 -26 -3 -41c1 -36 4 -56 15 -64c42 -32 184 46 222 67c145 80 245 135 404 162c42 7 84 7 126 -5c86 -24 84 -122 23 -159c-19 -12 -32 -8 -29 0zM171 147c123 111 289 249 269 418
c-18 36 -67 -20 -81 -36c-92 -111 -147 -246 -188 -382zM57 43l55 58c1 11 3 22 6 33l10 43c1 15 -4 27 -17 34c-38 17 -78 -76 -89 -102c-13 -29 -28 -133 35 -66z" />
    <glyph glyph-name="e.en01" horiz-adv-x="786" 
d="M61 15c61 10 154 61 183 77c90 50 163 90 244 120c77 28 264 89 296 -46c8 -35 -8 -74 -42 -94c-19 -12 -32 -8 -29 0c39 30 53 58 49 90c-17 122 -230 48 -283 27c-79 -31 -150 -73 -228 -116c-42 -23 -121 -66 -185 -77c-25 -4 -49 -3 -66 6c-39 19 -39 79 -30 113
c11 46 42 89 72 117c28 26 75 25 72 -23c-4 -58 -57 -84 -106 -99c-16 -47 -5 -105 53 -95zM11 125c34 9 72 44 79 77c5 24 -7 34 -23 16c-18 -21 -41 -49 -56 -93z" />
    <glyph glyph-name="f.en01" horiz-adv-x="745" 
d="M47 15c-3 -89 -16 -182 -50 -267c-13 -29 -39 -79 -76 -73c-16 3 -22 15 -27 30c-11 45 -8 91 -2 136c16 102 45 201 90 297c11 25 21 51 33 76v1c31 67 68 132 113 194c13 21 30 41 49 59c8 8 21 14 34 17c22 5 33 -7 32 -29c0 -31 -15 -59 -29 -86
c-42 -81 -100 -151 -172 -207c-6 -120 199 2 243 26c72 40 201 135 325 145c120 9 180 -91 94 -175c-16 -16 -32 -8 -29 0c83 72 47 167 -61 158c-121 -10 -267 -117 -322 -147c-57 -31 -192 -109 -246 -66c2 -30 1 -60 1 -89zM15 128l-15 -46c-39 -110 -77 -220 -83 -337
c-3 -12 -2 -25 -1 -38c16 -50 53 25 61 40c37 99 49 203 50 306c0 41 -4 57 -12 75zM213 465c-74 -82 -122 -177 -166 -275c43 40 90 86 123 138c27 42 70 133 43 137z" />
    <glyph glyph-name="g.en01" horiz-adv-x="934" 
d="M931 28c-3 -10 -13 -14 -13 0c-1 36 -15 46 -32 63c-130 123 -588 2 -792 -96l-33 -70c-23 -45 -65 -121 -99 -159c-27 -31 -56 -66 -94 -73c-47 -6 -73 21 -65 68c7 36 21 71 46 97c45 48 118 107 186 136l3 2c13 23 21 57 32 84c-24 -21 -58 -56 -86 -40
c-34 19 -15 81 -5 105c11 29 30 53 62 70c35 18 61 9 80 -28c10 21 18 33 28 49c13 17 54 26 43 -6c-34 -80 -62 -152 -88 -213c119 69 644 234 802 88c23 -21 33 -50 25 -77zM32 -26h-3c-11 -6 -21 -11 -30 -17c-3 -1 -5 -3 -7 -4c-44 -26 -96 -68 -131 -112
c-24 -31 -43 -67 -37 -105c10 -46 58 -25 76 1c21 27 41 55 58 85c21 38 55 112 74 152zM-4 51c36 3 90 75 106 102c7 13 -5 43 -18 50c-16 10 -29 -2 -40 -11c-35 -31 -70 -97 -48 -141z" />
    <glyph glyph-name="h.en01" horiz-adv-x="919" 
d="M93 -130c42 -32 191 50 229 71c78 43 143 79 211 107c90 37 314 120 376 9c22 -39 7 -93 -34 -118c-19 -12 -32 -8 -29 0c32 27 57 72 45 107c-40 112 -284 15 -349 -14c-73 -30 -140 -70 -213 -110c-57 -31 -181 -98 -245 -73v-1c-46 19 -39 90 -28 124
c19 59 52 123 75 170l3 10c-56 -36 -99 -97 -140 -141c-5 -5 -13 -11 -20 -11c-12 -2 -17 5 -15 18c16 99 46 192 89 281c45 96 123 271 211 313c43 17 76 -4 78 -51c4 -139 -180 -317 -289 -382c-9 -17 -27 -81 -33 -100c15 15 25 27 36 37c20 19 41 37 62 54
c12 10 26 13 41 3s13 -26 8 -40c-12 -28 -27 -56 -40 -85c-17 -40 -73 -144 -29 -178zM58 207c101 70 236 208 249 327c2 22 0 43 -17 59c-50 -25 -203 -276 -232 -386z" />
    <glyph glyph-name="i.en01" horiz-adv-x="833" 
d="M26 137c-16 -40 -16 -95 -13 -114c5 -18 22 -26 38 -26c59 -2 172 60 204 78c78 43 143 79 211 107c90 37 295 110 357 -1c22 -39 7 -93 -34 -118c-19 -12 -32 -8 -29 0c32 27 57 72 45 107c-40 112 -265 25 -330 -4c-73 -30 -140 -70 -213 -110
c-48 -27 -146 -80 -213 -79c-26 0 -47 10 -60 29c-26 37 -21 91 -9 127c10 33 27 63 42 94c3 6 7 14 14 18c6 3 15 5 21 2c4 -1 7 -13 5 -18c-12 -31 -27 -61 -36 -92zM103 360c5 -8 -19 -35 -32 -47c-3 -2 -11 -2 -14 0c-12 12 6 41 14 50c10 11 22 11 32 -3z" />
    <glyph glyph-name="j.en01" horiz-adv-x="540" 
d="M-157 -269c-40 -33 -113 -59 -126 14c-5 87 129 191 210 234l5 3c26 84 47 185 101 255c11 13 23 11 38 0c-54 -88 -60 -113 -97 -230c138 80 338 169 483 126c91 -26 106 -122 51 -160c-16 -13 -30 -9 -29 -1c64 33 50 116 -22 143c-127 48 -366 -57 -490 -135
c-21 -72 -68 -201 -124 -249zM-72 -47c-51 -30 -172 -115 -181 -198c-2 -48 24 -47 53 -26c52 38 108 161 128 224zM115 364c6 -8 -17 -35 -29 -47c-3 -2 -11 -2 -14 0c-13 12 4 41 11 50c9 11 21 11 32 -3z" />
    <glyph glyph-name="k.en01" horiz-adv-x="936" 
d="M57 -44c-11 35 -11 72 -8 105c-19 -20 -38 -47 -49 -70c-5 -10 -2 -17 -15 -14s-18 10 -16 24c8 73 20 146 41 218c39 118 92 230 168 331c28 38 48 66 90 91c117 61 118 -53 82 -134c-65 -147 -180 -254 -313 -337c-13 -38 -25 -80 -28 -114c27 39 63 73 96 108
c15 16 63 61 82 37c5 -8 4 -23 1 -32c-25 -54 -71 -74 -104 -78c-4 -23 -4 -79 9 -121c16 -54 43 -53 93 -39c58 17 128 56 153 70c78 43 143 79 211 107c90 37 314 120 376 9c22 -39 7 -93 -34 -118c-19 -12 -32 -8 -29 0c32 27 57 72 45 107c-40 112 -284 15 -349 -14
c-73 -30 -140 -70 -213 -110c-33 -18 -91 -49 -145 -66c-53 -17 -125 -21 -144 40zM45 201c100 48 233 185 286 319c14 35 12 144 -32 105c-22 -19 -42 -41 -60 -65c-56 -72 -98 -154 -141 -234c-20 -39 -27 -56 -53 -125zM168 187c-29 -10 -56 -48 -78 -74
c41 3 86 61 78 74z" />
    <glyph glyph-name="l.en01" horiz-adv-x="890" 
d="M-15 110c12 87 44 167 85 244c38 72 78 143 129 207c18 21 39 42 61 59c33 24 66 7 72 -33c5 -31 -5 -60 -17 -87c-59 -132 -142 -244 -263 -327c-12 -9 -19 -19 -22 -33c-5 -21 -8 -43 -10 -64c-9 -111 26 -188 145 -146c54 19 106 52 128 64c78 43 143 79 211 107
c90 37 307 129 376 9c22 -39 7 -93 -34 -118c-19 -12 -32 -8 -29 0c32 27 57 72 45 107c-40 112 -284 15 -349 -14c-73 -30 -140 -70 -213 -110c-31 -17 -84 -46 -136 -64c-67 -23 -115 -10 -145 26c-38 44 -42 120 -34 173zM251 563c-70 -89 -128 -189 -176 -291
c-12 -25 -21 -51 -32 -79c115 80 202 189 255 320c26 66 9 122 -47 50z" />
    <glyph glyph-name="m.en01" horiz-adv-x="1057" 
d="M180 -29c3 35 17 66 34 96c21 38 43 76 62 116c-18 -18 -37 -36 -54 -56c-32 -36 -62 -74 -93 -111c-5 -5 -9 -12 -14 -16c-7 -4 -18 -10 -23 -7c-26 17 2 78 11 99c16 34 66 114 66 136l-16 -14l-161 -179c-11 -11 -22 -24 -34 -33c-7 -5 -19 -6 -27 -3
c-4 1 -7 17 -4 23c24 54 49 107 74 161c11 18 46 14 39 -3l-59 -127l27 33c47 49 85 95 129 143c18 18 48 48 64 39c20 -14 7 -50 -1 -72c-7 -17 -16 -35 -25 -52c-19 -36 -40 -71 -60 -106c1 -1 2 -1 3 -1c46 50 94 107 141 157c10 20 64 38 56 -9c-8 -23 -19 -46 -31 -69
c-24 -44 -50 -81 -65 -119c-23 -61 6 -99 70 -84c61 14 144 59 171 74c78 43 143 79 211 107c90 37 314 120 376 9c22 -39 7 -93 -34 -118c-19 -12 -32 -8 -29 0c32 27 57 72 45 107c-40 112 -284 15 -349 -14c-73 -30 -140 -70 -213 -110c-39 -22 -112 -61 -174 -74
c-61 -14 -118 13 -113 77z" />
    <glyph glyph-name="n.en01" horiz-adv-x="979" 
d="M109 -45c-13 32 -8 77 3 104c24 56 74 128 62 135c-55 -32 -126 -122 -171 -167c-6 -7 -13 -12 -21 -15c-17 -8 -35 5 -30 23c14 47 30 94 46 141c4 10 11 17 24 13s14 -15 11 -27c-4 -12 -39 -96 -33 -102c36 40 152 168 206 153c49 -32 -33 -120 -56 -188
c-22 -58 -14 -99 51 -90c61 10 152 60 181 76c78 43 143 79 211 107c90 37 314 120 376 9c22 -39 7 -93 -34 -118c-19 -12 -32 -8 -29 0c32 27 57 72 45 107c-40 112 -284 15 -349 -14c-73 -30 -140 -70 -213 -110c-42 -23 -122 -65 -186 -76c-37 -6 -82 2 -94 39z" />
    <glyph glyph-name="o.en01" horiz-adv-x="863" 
d="M-2 -5c-30 11 -46 70 -33 107c7 21 23 46 35 60c-1 8 0 16 0 23c1 25 12 51 23 70c56 91 117 18 101 -63c-4 -20 -9 -40 -16 -59l-10 -27c49 7 115 39 171 72c79 46 142 85 210 113c90 37 311 123 373 12c22 -39 10 -96 -31 -121c-19 -12 -32 -8 -29 0
c32 27 57 72 45 107c-40 112 -284 15 -349 -14c-73 -30 -139 -71 -211 -113c-49 -29 -126 -73 -188 -78c-21 -47 -53 -102 -91 -89zM77 104l11 31c8 22 14 44 19 65c8 44 -10 116 -61 47c-30 -49 -44 -143 31 -143zM11 9c28 15 44 45 57 75c-22 3 -39 10 -52 26
c-24 -21 -29 -90 -5 -101z" />
    <glyph glyph-name="p.en01" horiz-adv-x="993" 
d="M126 -3c-14 -9 -29 -16 -49 -17c-25 -1 -37 14 -33 39c13 61 71 88 119 102c22 35 41 105 21 118c-136 -45 -325 -532 -361 -652c-14 -26 -32 -10 -29 0c53 234 91 373 225 633c5 10 16 19 24 9c17 -21 -92 -230 -120 -342c52 118 148 331 236 371c33 15 52 -2 57 -34
c4 -27 0 -62 -10 -97c160 35 654 255 771 94c25 -36 19 -84 -12 -109c-17 -14 -31 -10 -30 -2c45 43 46 77 25 102c-129 153 -622 -82 -761 -105c-17 -47 -44 -91 -73 -110zM155 93c-63 -21 -73 -39 -85 -74c-6 -20 1 -32 26 -10c11 9 21 24 31 40c7 12 22 32 28 44z" />
    <glyph glyph-name="q.en01" horiz-adv-x="853" 
d="M232 153l-45 -92c-24 -66 -62 -106 5 -102c63 4 171 57 202 74c72 40 201 135 325 145c120 9 180 -91 94 -175c-16 -16 -32 -8 -29 0c83 72 47 167 -61 158c-121 -10 -267 -117 -322 -147c-46 -25 -144 -71 -214 -73c-12 0 -22 2 -29 4c-7 -131 -21 -307 -119 -378
c-29 -21 -60 -11 -68 24c-8 32 -3 64 5 95c20 76 55 146 89 217c26 54 55 107 81 161v2c10 19 18 38 27 58c-41 -47 -80 -91 -126 -127c-18 -15 -41 -25 -65 -12c-23 14 -25 39 -24 62c7 100 56 177 140 229c54 34 104 5 116 -68l51 82c6 9 10 19 23 13c12 -6 11 -16 6 -26z
M22 2c48 26 111 108 145 150c12 15 16 39 19 60c3 18 -1 39 -20 49c-20 11 -36 -4 -50 -15c-47 -38 -79 -87 -104 -140c-12 -26 -58 -138 10 -104zM130 -57c-42 -77 -78 -164 -115 -244c-15 -32 -25 -66 -23 -102c4 -28 19 -32 38 -16c13 13 26 28 35 44
c59 96 70 216 65 318z" />
    <glyph glyph-name="r.en01" horiz-adv-x="903" 
d="M32 -58c-8 26 -6 51 5 75c12 26 25 53 39 79c12 24 12 45 -9 67c-13 14 -29 25 -32 47l-21 -39l-15 8l78 153c6 11 15 12 25 8c11 -4 12 -12 8 -23l-25 -74c-8 -29 -5 -56 15 -80c19 -21 23 -45 13 -72c-12 -30 -25 -59 -36 -88c-9 -22 -22 -68 -2 -80c1 0 1 0 2 -1
c42 -32 191 50 229 71c78 43 143 79 211 107c90 37 314 120 376 9c22 -39 7 -93 -34 -118c-19 -12 -32 -8 -29 0c32 27 57 72 45 107c-40 112 -284 15 -349 -14c-73 -30 -140 -70 -213 -110c-58 -32 -189 -103 -251 -71c-5 3 -9 6 -12 10c-8 7 -15 17 -18 29z" />
    <glyph glyph-name="s.en01" horiz-adv-x="674" 
d="M35 -12c-11 -18 -32 -25 -39 -25c-27 0 -44 6 -65 32c-4 5 -3 11 6 14c22 7 51 21 81 39c7 66 -32 127 -20 189c5 21 21 28 35 19c4 -3 9 -11 7 -15c-19 -57 14 -110 17 -169c55 35 109 74 135 92c76 54 151 107 235 139c20 8 40 15 60 18c34 8 73 12 110 4
c87 -18 98 -108 43 -153c-17 -15 -30 -13 -29 -5c34 36 41 64 35 96c-14 82 -175 41 -219 20c-83 -38 -158 -86 -228 -135c-32 -21 -87 -61 -143 -96c-1 -20 -8 -42 -21 -64zM-45 -2c25 -22 46 -15 58 26v2c-20 -12 -41 -22 -58 -28z" />
    <glyph glyph-name="t.en01" horiz-adv-x="859" 
d="M-29 72c10 89 51 170 95 248l31 54c-45 15 -88 30 -134 33c-35 2 -70 -5 -104 -17c-17 -6 -42 -26 -55 -39c-11 -10 -22 -2 -18 9c25 30 55 47 90 56c62 14 122 6 181 -12c15 -5 39 -12 48 -12c9 14 16 24 24 38l57 96c8 16 37 15 28 -6c-13 -30 -28 -59 -42 -88l-28 -53
c46 -13 89 -25 133 -9c12 5 24 16 31 27c8 13 12 17 24 7c-5 -21 -21 -40 -40 -47c-42 -16 -79 -9 -122 -1c-11 2 -21 5 -33 8c-51 -94 -104 -186 -129 -291c-12 -48 3 -95 56 -95c60 3 166 61 197 78c78 43 143 79 211 107c90 37 314 120 376 9c22 -39 7 -93 -34 -118
c-19 -12 -32 -8 -29 0c32 27 57 72 45 107c-40 112 -284 15 -349 -14c-73 -30 -140 -70 -213 -110c-46 -25 -135 -76 -204 -79c-63 0 -101 45 -93 114z" />
    <glyph glyph-name="u.en01" horiz-adv-x="983" 
d="M123 -65c-19 32 -17 68 -9 103c6 26 3 17 15 54c-23 -30 -50 -59 -78 -82c-17 -14 -38 -19 -58 -8c-20 10 -29 29 -29 51c0 69 29 126 71 178c8 10 18 12 31 2c-29 -66 -70 -127 -70 -196c1 -26 18 -34 37 -17c25 21 48 44 68 69c35 48 67 98 101 147c8 13 18 21 34 14
c3 -2 6 -13 4 -18c-8 -20 -16 -40 -25 -60c-29 -66 -50 -105 -63 -177c-12 -80 34 -88 99 -65c54 19 113 52 135 64c78 43 143 79 211 107c90 37 314 120 376 9c22 -39 7 -93 -34 -118c-19 -12 -32 -8 -29 0c32 27 57 72 45 107c-40 112 -284 15 -349 -14
c-73 -30 -140 -70 -213 -110c-31 -17 -84 -46 -136 -64c-45 -16 -108 -22 -134 24z" />
    <glyph glyph-name="v.en01" horiz-adv-x="1001" 
d="M159 82c-12 5 -22 14 -30 30c-33 -48 -51 -82 -84 -111c-29 -26 -56 -14 -62 23c-7 52 -3 104 15 154c4 12 10 18 23 14c12 -3 13 -12 11 -23c-4 -22 -39 -154 -15 -168c21 4 74 75 101 130c-28 62 -29 319 98 300c27 -4 38 -35 33 -68c-18 -88 -63 -156 -105 -228
c4 -16 16 -30 23 -33c88 -53 272 67 359 117c107 61 214 125 334 125c57 1 107 -13 131 -56c22 -39 7 -93 -34 -118c-19 -12 -32 -8 -29 0c32 27 57 72 45 107c-15 43 -62 56 -117 52c-119 -10 -223 -70 -321 -127c-88 -51 -277 -166 -376 -120zM139 160
c55 85 89 154 86 224c-2 37 -34 1 -40 -8c-42 -63 -47 -140 -46 -216z" />
    <glyph glyph-name="w.en01" horiz-adv-x="1061" 
d="M214 37l-28 -46c-14 -20 -29 -41 -47 -58c-28 -28 -56 -19 -66 20c-11 48 -6 93 2 138c-18 -32 -38 -61 -62 -87c-10 -11 -26 -19 -38 -9c-30 27 -14 86 -3 117c14 42 34 82 52 122c4 7 9 14 15 17c5 3 14 3 21 1c2 -1 3 -12 1 -17c-20 -74 -73 -152 -66 -227
c44 52 71 111 102 169c5 11 11 19 24 14s11 -14 8 -25c-12 -44 -25 -88 -33 -133c-1 -3 -17 -128 30 -86c36 33 54 70 75 112c-41 55 -39 119 -25 183c8 36 21 71 35 106c6 15 16 30 28 42c24 25 56 18 70 -14c33 -75 -40 -229 -73 -294l-8 -17c88 -53 271 65 358 115
c107 61 214 125 334 125c57 1 107 -13 131 -56c22 -39 7 -93 -34 -118c-19 -12 -32 -8 -29 0c32 27 57 72 45 107c-15 43 -62 56 -117 52c-119 -10 -223 -70 -321 -127c-88 -51 -277 -166 -376 -120h-1c-2 -2 -3 -5 -4 -6zM275 384c-45 -33 -101 -234 -62 -299l15 34
c32 73 90 193 47 265z" />
    <glyph glyph-name="x.en01" horiz-adv-x="942" 
d="M148 42l1 1c13 -56 80 -45 117 -33c53 16 111 46 133 59c87 49 505 299 543 78c5 -29 -13 -76 -41 -93c-19 -12 -32 -8 -29 0c39 30 53 58 49 90c-22 192 -451 -52 -513 -90c-31 -19 -86 -46 -139 -62c-62 -19 -118 -22 -151 31c-15 26 -15 57 -17 86
c-46 -36 -138 -95 -149 -188c-14 -2 -19 3 -18 16c14 97 110 150 165 197l-4 56c-6 53 -34 63 -62 15c-4 -8 -10 -19 -19 -34l-15 8l17 34c13 26 33 49 64 46c40 -3 48 -48 51 -104c38 36 73 77 90 136c4 20 24 23 22 4c-15 -71 -68 -125 -108 -166c4 -29 6 -59 13 -87z" />
    <glyph glyph-name="y.en01" horiz-adv-x="804" 
d="M103 -104l-8 -24c-23 -63 -57 -129 -95 -186c-91 -136 -252 -59 -140 72c55 65 158 149 218 185c25 60 23 80 44 150c-16 -18 -30 -38 -47 -55c-16 -16 -32 -32 -51 -43c-26 -16 -49 -4 -56 26c-8 37 -2 73 10 108c17 44 39 87 59 130c3 6 7 14 13 16c7 3 18 4 25 2
c10 -4 9 -14 4 -23c-14 -26 -27 -52 -42 -78c-22 -36 -79 -208 -8 -156c36 26 62 65 87 101c37 54 68 112 101 168c6 8 10 18 17 25c5 5 6 11 8 8c6 -4 11 -15 9 -21c-4 -18 -11 -36 -19 -53c-41 -84 -73 -176 -102 -267c140 98 421 208 575 194c94 -7 128 -99 81 -147
c-13 -16 -28 -14 -28 -6c56 45 26 123 -50 136c-140 23 -460 -116 -587 -204zM72 -83c-25 -16 -132 -90 -195 -171c-80 -105 7 -156 90 -40c49 67 96 179 105 211z" />
    <glyph glyph-name="z.en01" horiz-adv-x="816" 
d="M97 -78v-20c-3 -36 -4 -69 -10 -102c-12 -70 -38 -136 -82 -192c-36 -46 -86 -69 -144 -63c-43 4 -73 36 -78 79c-6 174 198 262 281 317c0 38 -11 47 -27 82c-11 26 -8 44 13 63c17 16 32 35 47 53c20 23 33 52 37 82c0 10 -1 19 -4 26c-12 30 -55 8 -70 -7
c-12 -12 -27 -32 -46 -69l-15 8c28 60 54 91 77 99c37 15 83 7 96 -32c4 -12 5 -26 4 -40c-5 -35 -21 -65 -45 -91c-17 -17 -35 -34 -51 -52c-5 -6 -11 -17 -9 -25c5 -30 15 -45 22 -82c133 97 468 205 633 174c93 -17 114 -104 63 -147c-15 -15 -29 -13 -29 -4
c60 59 31 118 -40 132c-154 29 -532 -94 -624 -180c0 -3 1 -6 1 -9zM65 -84c-58 -42 -271 -146 -258 -292c2 -22 13 -43 35 -55c38 -22 98 10 120 39c39 51 67 110 82 173c9 34 15 98 21 135z" />
    <glyph glyph-name="a.st02" horiz-adv-x="998" 
d="M998 181l15 -8c-57 -100 -95 -153 -153 -221c-40 -47 -98 -42 -102 24c0 26 1 44 14 84l17 47c-22 -24 -45 -51 -70 -68c-19 -12 -56 -23 -56 12c-1 12 1 25 5 38c-129 -144 -268 -255 -452 -231c-54 7 -103 29 -142 72c-48 53 -64 125 -53 191c14 89 105 277 269 278
c32 0 73 -23 73 -80c0 -19 -16 -6 -13 -3c0 42 -27 63 -56 64c-139 4 -241 -190 -252 -288c-10 -119 71 -199 170 -218c170 -33 345 124 452 241c27 30 51 65 81 89c7 5 14 10 22 14c29 15 51 11 73 -15c6 9 11 18 19 26c5 6 14 11 22 12c18 3 27 -6 18 -23l-61 -119
c-24 -45 -32 -71 -39 -101c-7 -48 5 -81 45 -37c80 88 104 131 154 220zM827 185c-10 11 -16 30 -50 5c-30 -24 -69 -74 -78 -119c-3 -14 0 -20 3 -21c25 -8 100 109 125 135z" />
    <glyph glyph-name="b.st02" horiz-adv-x="1018" 
d="M682 38c35 48 89 126 147 145c90 29 70 -97 49 -152c65 30 118 107 140 150l14 -10c-42 -83 -96 -137 -158 -164c-26 -58 -62 -108 -118 -140c-18 -11 -38 -17 -59 -19c-27 -2 -39 20 -33 47c15 71 113 102 159 123c20 43 36 88 35 136c-1 80 -173 -132 -188 -157
c-1 -2 -3 -6 -5 -7c-14 -3 -33 -9 -29 13c6 37 13 73 21 109c-157 -122 -317 -192 -488 -128c-112 43 -193 168 -160 284c23 85 134 251 297 218c32 -7 70 -37 64 -94c-2 -18 -16 -2 -13 0c4 41 -20 68 -49 74c-138 33 -260 -137 -281 -231c-23 -114 68 -203 149 -235
c168 -66 359 32 489 140c39 144 102 276 190 398c46 63 130 145 179 81c77 -101 -203 -363 -328 -468c-12 -36 -19 -83 -24 -113zM714 185c143 128 333 336 308 401c-23 59 -86 -1 -106 -29c-74 -102 -135 -212 -182 -329c-5 -13 -14 -28 -20 -43zM811 -9
c-39 -14 -76 -36 -105 -61c-23 -20 -40 -83 5 -57c47 27 74 68 100 118z" />
    <glyph glyph-name="c.st02" horiz-adv-x="901" 
d="M901 181l15 -8c-47 -93 -96 -154 -158 -172c-87 -23 -105 66 -90 129c-135 -155 -277 -277 -470 -252c-54 7 -103 29 -142 72c-48 53 -64 125 -53 191c14 89 105 277 269 278c32 0 73 -23 73 -80c0 -19 -16 -6 -13 -3c0 42 -27 63 -56 64c-139 4 -241 -190 -252 -288
c-10 -119 71 -199 170 -218c208 -40 397 164 512 310c6 7 14 15 22 22c22 20 49 29 77 26c10 -1 31 -7 26 -18c-28 1 -47 -8 -64 -23c-42 -39 -65 -85 -67 -141c0 -34 18 -59 51 -50c56 15 103 75 150 161z" />
    <glyph glyph-name="d.st02" horiz-adv-x="1091" 
d="M1091 181l14 -10c-36 -70 -119 -256 -200 -245c-63 8 -80 75 -82 126v23l-35 -39c-51 -57 -113 -54 -114 32c1 17 3 34 8 50c-130 -146 -303 -269 -497 -231c-54 10 -101 35 -138 80c-44 56 -56 129 -41 194c19 88 122 270 285 261c32 -1 72 -27 68 -84
c-1 -19 -16 -5 -13 -2c3 42 -23 65 -52 67c-138 13 -252 -175 -269 -272c-17 -118 59 -203 157 -228c204 -52 411 130 529 278c5 7 11 14 17 21c38 40 94 39 123 12c41 119 96 226 180 321c73 84 166 106 148 -34c-20 -147 -208 -307 -303 -385c-10 -22 -18 -90 -13 -117
c6 -37 18 -56 36 -60c69 -14 185 232 192 242zM882 147c123 111 289 249 269 418c-18 36 -67 -20 -81 -36c-92 -111 -147 -246 -188 -382zM768 43l55 58c7 17 14 55 16 71c2 18 -2 31 -17 39c-38 17 -78 -76 -89 -102c-13 -29 -28 -133 35 -66z" />
    <glyph glyph-name="e.st02" horiz-adv-x="866" 
d="M731 232c27 27 75 25 72 -23c-4 -58 -57 -84 -106 -99c-8 -22 -7 -46 -4 -69c5 -20 16 -24 29 -23c55 3 123 121 144 163l15 -8c-18 -36 -89 -167 -158 -173c-11 -1 -22 0 -31 5c-32 15 -46 46 -40 85c1 10 4 20 7 30c-133 -150 -272 -267 -461 -242
c-54 7 -103 29 -142 72c-48 53 -64 125 -53 191c14 89 105 277 269 278c32 0 73 -23 73 -80c0 -19 -16 -6 -13 -3c0 42 -27 63 -56 64c-139 4 -241 -190 -252 -288c-10 -119 71 -199 170 -218c202 -39 386 152 502 297c10 14 22 28 35 41zM700 125c34 9 72 44 79 77
c5 24 -7 34 -23 16c-18 -21 -41 -49 -56 -93z" />
    <glyph glyph-name="f.st02" horiz-adv-x="922" 
d="M922 181l15 -8c-39 -81 -108 -114 -173 -70c1 -34 2 -58 1 -88c-3 -89 -16 -182 -50 -267c-13 -29 -39 -79 -76 -73c-16 3 -22 15 -27 30c-11 45 -8 91 -2 136c13 88 37 172 71 255c-139 -161 -283 -293 -482 -267c-54 7 -103 29 -142 72c-48 53 -64 125 -53 191
c14 89 105 277 269 278c32 0 73 -23 73 -80c0 -19 -16 -6 -13 -3c0 42 -27 63 -56 64c-139 4 -241 -190 -252 -288c-10 -119 71 -199 170 -218c208 -40 397 163 512 309c36 88 80 175 139 255c13 21 30 41 49 59c8 8 21 14 34 17c22 5 33 -7 32 -29c0 -31 -15 -59 -29 -86
c-44 -85 -106 -157 -182 -215c49 -88 135 -59 172 26zM736 127l-18 -45c-39 -110 -77 -220 -83 -337c-3 -12 -2 -25 -1 -38c16 -50 53 25 61 40c40 107 51 218 50 329c-1 15 -1 37 -9 51zM931 465c-74 -82 -122 -177 -166 -275c43 40 90 86 123 138c27 42 70 133 43 137z
" />
    <glyph glyph-name="g.st02" horiz-adv-x="1011" 
d="M1011 181l15 -8c-52 -99 -137 -179 -241 -208c-24 -48 -64 -140 -117 -199c-27 -31 -56 -66 -94 -73c-47 -6 -73 21 -65 68c7 36 24 67 49 93c45 48 99 83 159 110c8 3 17 11 20 19c14 30 25 61 39 97c-24 -21 -58 -56 -86 -40c-28 15 -20 60 -11 89
c-150 -150 -303 -269 -498 -228c-53 11 -100 37 -136 83c-44 56 -54 129 -38 194c20 88 125 269 289 257c31 -2 71 -28 66 -85c-1 -19 -16 -5 -13 -2c3 42 -22 65 -51 68c-138 15 -254 -171 -273 -268c-19 -118 56 -204 153 -230c186 -51 371 101 498 233c26 26 43 49 71 64
c35 18 61 9 80 -28c10 21 18 33 28 49c13 17 54 26 43 -6l-104 -240c81 24 167 94 217 191zM721 -58c-12 -2 -29 -9 -36 -13c-53 -31 -104 -65 -138 -119c-14 -23 -21 -47 -17 -74c10 -46 58 -25 76 1c21 27 41 55 58 85c21 38 38 80 57 120zM702 51c36 3 90 75 106 102
c7 13 -5 43 -18 50c-16 10 -29 -2 -40 -11c-35 -31 -70 -97 -48 -141z" />
    <glyph glyph-name="h.st02" horiz-adv-x="1043" 
d="M1043 181l14 -10c-44 -76 -131 -245 -192 -304c-51 -50 -141 -23 -134 49c10 72 57 163 88 226l3 10c-56 -36 -99 -97 -140 -141c-5 -5 -13 -11 -20 -11c-12 -2 -17 5 -15 18c6 39 15 77 25 115c-165 -128 -331 -224 -518 -159c-52 17 -95 49 -125 98
c-36 62 -37 136 -13 198c31 85 158 251 319 219c31 -7 67 -37 55 -93c-4 -19 -17 -3 -13 0c8 41 -14 67 -42 73c-136 32 -274 -138 -305 -231c-33 -115 30 -210 123 -248c180 -74 385 56 528 171c15 47 33 93 55 138c45 96 123 271 211 313c43 17 80 -4 78 -51
c-5 -131 -175 -298 -289 -382c-9 -17 -27 -81 -33 -100c15 15 25 27 36 37c20 19 41 37 62 54c12 10 26 13 41 3s13 -26 8 -40c-12 -28 -27 -56 -40 -85c-22 -51 -72 -139 -34 -184c26 -26 63 2 83 20c55 57 144 224 184 297zM747 212c102 81 222 202 248 322
c5 22 0 43 -17 59c-50 -25 -202 -271 -231 -381z" />
    <glyph glyph-name="i.st02" horiz-adv-x="854" 
d="M854 181l15 -8c-31 -64 -79 -144 -113 -172c-35 -29 -71 -28 -92 5c-26 37 -22 89 -9 127c3 12 8 23 13 34c-135 -155 -277 -277 -470 -252c-54 7 -103 29 -142 72c-48 53 -64 125 -53 191c14 89 105 277 269 278c32 0 73 -23 73 -80c0 -19 -16 -6 -13 -3
c0 42 -27 63 -56 64c-139 4 -241 -190 -252 -288c-10 -119 71 -199 170 -218c205 -39 391 158 507 304c2 4 6 7 10 10c6 3 15 5 21 2c4 -1 7 -13 5 -18c-12 -31 -27 -61 -36 -92c-12 -36 -39 -199 43 -123c50 46 109 165 110 167zM778 360c5 -8 -19 -35 -32 -47
c-3 -2 -11 -2 -14 0c-12 12 6 41 14 50c10 11 22 11 32 -3z" />
    <glyph glyph-name="j.st02" horiz-adv-x="855" 
d="M855 181l14 -10c-51 -116 -117 -248 -251 -280c-20 -59 -49 -120 -96 -160c-40 -33 -113 -59 -126 14c-5 89 119 155 190 166c18 59 46 161 80 241c-135 -156 -278 -281 -472 -255c-54 7 -103 29 -142 72c-48 53 -64 125 -53 191c14 89 105 277 269 278
c32 0 73 -23 73 -80c0 -19 -16 -6 -13 -3c0 42 -27 63 -56 64c-139 4 -241 -190 -252 -288c-10 -119 71 -199 170 -218c208 -40 397 164 512 310l10 14c11 13 23 11 38 0c-59 -96 -89 -207 -125 -318c107 14 189 177 230 262zM579 -112c-51 -10 -107 -44 -136 -80
c-11 -14 -20 -32 -24 -50c-2 -48 31 -50 60 -29c52 38 80 96 100 159zM794 364c6 -8 -17 -35 -29 -47c-3 -2 -11 -2 -14 0c-13 12 4 41 11 50c9 11 21 11 32 -3z" />
    <glyph glyph-name="k.st02" horiz-adv-x="1036" 
d="M727 170v-1l-1 -1c-13 -37 -24 -79 -27 -112c27 39 63 73 96 108c15 16 63 61 82 37c5 -8 4 -23 1 -32c-25 -54 -71 -74 -104 -78c-6 -45 0 -226 92 -158c74 61 150 206 170 248l16 -6c-52 -103 -114 -203 -174 -249c-49 -39 -112 -26 -131 30c-11 35 -11 72 -8 105
c-19 -20 -38 -47 -49 -70c-5 -10 -2 -17 -15 -14s-18 10 -16 24c4 43 11 86 19 129c-167 -130 -335 -228 -524 -163c-52 17 -95 49 -125 98c-36 62 -37 136 -13 198c31 85 158 251 319 219c31 -7 67 -37 55 -93c-4 -19 -17 -3 -13 0c8 41 -14 67 -42 73
c-136 32 -274 -138 -305 -231c-33 -115 30 -210 123 -248c181 -75 388 58 531 173c28 143 99 281 184 394c28 38 48 66 90 91c117 61 117 -53 82 -134c-58 -135 -197 -252 -313 -337zM735 201c96 71 223 189 286 319c26 54 8 136 -36 97c-22 -19 -38 -33 -56 -57
c-56 -72 -98 -154 -141 -234c-20 -39 -27 -56 -53 -125zM858 187c-29 -10 -56 -48 -78 -74c41 3 86 61 78 74z" />
    <glyph glyph-name="l.st02" horiz-adv-x="965" 
d="M727 175l-12 -10c-7 -7 -11 -15 -13 -25c-11 -51 -17 -102 -6 -153c3 -16 7 -32 17 -46c88 -125 215 179 252 240l14 -10c-47 -79 -143 -310 -237 -277c-35 12 -56 40 -72 73c-21 46 -19 94 -13 143c0 4 1 7 2 11c-161 -122 -323 -211 -505 -148c-52 17 -95 49 -125 98
c-36 62 -37 136 -13 198c31 85 158 251 319 219c31 -7 67 -37 55 -93c-4 -19 -17 -3 -13 0c8 41 -14 67 -42 73c-136 32 -274 -138 -305 -231c-33 -115 30 -210 123 -248c172 -71 368 46 510 157c15 73 43 142 79 208c38 72 78 143 129 207c18 21 39 42 61 59
c33 24 66 7 72 -33c5 -31 -5 -60 -17 -87c-59 -131 -141 -242 -260 -325zM923 563c-70 -89 -128 -189 -176 -291c-12 -25 -21 -51 -32 -79c5 2 7 2 8 3c110 84 195 188 247 317c26 66 9 122 -47 50z" />
    <glyph glyph-name="m.st02" horiz-adv-x="1168" 
d="M1168 181l14 -10c-47 -93 -157 -290 -236 -281c-38 4 -62 39 -59 81c3 35 17 66 34 96c21 38 43 76 62 116c-18 -18 -37 -36 -54 -56c-32 -36 -62 -74 -93 -111c-5 -5 -9 -12 -14 -16c-7 -4 -18 -10 -23 -7c-26 17 2 78 11 99c16 34 66 114 66 136l-16 -14l-161 -179
c-11 -11 -22 -24 -34 -33c-7 -5 -19 -6 -27 -3c-4 1 -7 17 -4 23c19 42 38 84 58 126c-172 -135 -343 -240 -537 -173c-52 17 -95 49 -125 98c-36 62 -37 136 -13 198c31 85 158 251 319 219c31 -7 67 -37 55 -93c-4 -19 -17 -3 -13 0c8 41 -14 67 -42 73
c-136 32 -274 -138 -305 -231c-33 -115 30 -210 123 -248c192 -79 412 74 555 193c12 17 45 12 38 -4l-59 -127l27 33c47 49 85 95 129 143c18 18 48 48 64 39c20 -14 7 -50 -1 -72c-7 -17 -16 -35 -25 -52c-19 -36 -40 -71 -60 -106c1 -1 2 -1 3 -1c46 50 94 107 141 157
c10 20 64 38 56 -9c-8 -23 -19 -46 -31 -69c-36 -66 -70 -114 -70 -178c-1 -30 22 -41 51 -30c70 27 195 271 196 273z" />
    <glyph glyph-name="n.st02" horiz-adv-x="1080" 
d="M861 25c-12 -34 -27 -113 30 -93c62 22 167 214 189 249l14 -10c-41 -71 -144 -265 -223 -256c-68 7 -66 100 -48 144c24 56 74 128 62 135c-55 -32 -126 -122 -171 -167c-6 -7 -13 -12 -21 -15c-17 -8 -35 5 -30 23c11 38 24 77 37 116c-174 -138 -348 -248 -545 -180
c-52 17 -95 49 -125 98c-36 62 -37 136 -13 198c31 85 158 251 319 219c31 -7 67 -37 55 -93c-4 -19 -17 -3 -13 0c8 41 -14 67 -42 73c-136 32 -274 -138 -305 -231c-33 -115 30 -210 123 -248c194 -80 419 79 561 198c4 4 10 6 18 4c13 -4 14 -15 11 -27
c-4 -12 -39 -96 -33 -102c36 40 152 168 206 153c49 -32 -33 -120 -56 -188z" />
    <glyph glyph-name="o.st02" horiz-adv-x="894" 
d="M894 181l15 -8c-30 -54 -79 -130 -136 -113c-12 -26 -45 -77 -79 -65c-27 10 -42 57 -36 94c-79 -93 -168 -171 -279 -202c-83 -23 -170 -23 -241 5c-164 66 -184 294 -50 406c39 33 97 54 167 59c32 2 75 -17 78 -74c1 -20 -15 -8 -12 -4c-4 42 -32 61 -60 59
c-58 -2 -108 -23 -147 -53c-132 -102 -116 -291 25 -370c65 -37 154 -34 233 -12c152 42 262 188 323 261c0 7 1 15 1 21c1 25 12 51 23 70c56 91 117 18 101 -63c-8 -43 -27 -90 -40 -116c45 -18 101 82 114 105zM764 86c18 36 30 76 39 114c8 44 -10 116 -61 47
c-41 -61 -32 -133 22 -161zM707 9c18 9 39 33 49 59c-20 9 -34 25 -44 42c-24 -21 -29 -90 -5 -101z" />
    <glyph glyph-name="p.st02" horiz-adv-x="1038" 
d="M1038 181l15 -8c-36 -63 -110 -85 -153 -88c-27 -53 -53 -101 -113 -105c-25 -1 -39 20 -35 45c13 63 78 78 113 80c22 35 40 92 29 134c-136 -45 -325 -532 -361 -652c-14 -26 -32 -10 -29 0c48 212 83 346 189 562c-147 -124 -324 -205 -509 -173
c-265 48 -210 340 -47 461c54 41 122 66 195 52c31 -7 67 -37 55 -93c-4 -19 -17 -3 -13 0c8 41 -14 67 -42 73c-62 14 -127 -11 -181 -53c-158 -124 -196 -373 32 -418c192 -38 360 60 501 172c11 9 23 19 45 50c5 10 16 19 24 9c17 -21 -92 -230 -120 -342
c52 118 148 331 236 371c63 29 74 -58 38 -149c58 4 111 35 131 72zM856 84c-71 -4 -100 -74 -75 -83c26 -9 54 42 75 83z" />
    <glyph glyph-name="q.st02" horiz-adv-x="1093" 
d="M1093 181l15 -8c-40 -76 -146 -263 -248 -227c10 -119 -16 -239 -75 -339c-9 -15 -21 -29 -35 -40c-27 -23 -60 -11 -68 24c-8 32 -3 64 5 95c20 76 55 146 89 217c36 74 76 147 108 221c-41 -47 -80 -91 -126 -127c-18 -15 -41 -25 -65 -12c-23 14 -25 39 -24 62
c2 37 10 71 24 101c-172 -135 -343 -241 -538 -174c-52 17 -95 49 -125 98c-36 62 -37 136 -13 198c31 85 158 251 319 219c31 -7 67 -37 55 -93c-4 -19 -17 -3 -13 0c8 41 -14 67 -42 73c-136 32 -274 -138 -305 -231c-33 -115 30 -210 123 -248c185 -77 397 64 540 181
c44 33 62 72 115 105c54 34 104 5 116 -68l51 82c6 9 10 19 23 13c12 -6 11 -16 6 -26l-62 -124l-89 -183c108 -56 208 160 239 211zM733 2c48 26 111 108 145 150c12 15 16 39 19 60c3 18 -1 39 -20 49c-20 11 -36 -4 -50 -15c-47 -38 -79 -87 -104 -140
c-12 -26 -58 -138 10 -104zM841 -57c-42 -77 -78 -164 -115 -244c-15 -32 -25 -66 -23 -102c4 -28 19 -32 38 -16c13 13 26 28 35 44c59 96 70 216 65 318z" />
    <glyph glyph-name="r.st02" horiz-adv-x="936" 
d="M745 332c5 11 15 12 25 8c11 -4 12 -12 8 -23l-25 -74c-8 -29 -5 -56 15 -80c19 -21 23 -45 13 -72c-12 -30 -25 -59 -36 -88c-11 -28 -27 -93 20 -81c8 2 16 6 24 12c57 44 111 180 147 247c0 0 2 -2 15 -8c-34 -67 -86 -202 -148 -251c-11 -8 -24 -17 -37 -21
c-29 -8 -56 9 -66 41c-8 26 -6 51 5 75c12 26 25 53 39 79c12 24 12 45 -9 67c-13 14 -29 25 -32 47l-5 -7c-91 -124 -188 -240 -307 -298c-108 -53 -245 -58 -334 23c-51 50 -62 129 -55 195c7 90 85 284 249 296c31 2 74 -17 77 -74c2 -20 -15 -8 -12 -4
c-3 42 -32 61 -60 59c-140 -5 -227 -206 -232 -304c7 -210 201 -257 357 -178c89 45 169 124 234 204c17 21 88 121 130 210z" />
    <glyph glyph-name="s.st02" horiz-adv-x="912" 
d="M912 181l14 -8c-56 -89 -153 -205 -255 -210c-33 -1 -50 4 -70 32c12 17 17 8 29 -2c18 -17 40 -10 57 31c26 61 1 118 3 174c-152 -187 -268 -336 -477 -323c-55 2 -105 22 -147 61c-51 50 -72 121 -65 187c7 90 85 284 249 296c31 2 74 -17 77 -74c2 -20 -15 -8 -12 -4
c-3 42 -32 61 -60 59c-140 -5 -227 -206 -232 -304c-1 -120 85 -194 185 -206c209 -26 382 209 487 342c1 1 1 3 2 5c8 21 25 28 38 19c3 -3 7 -11 5 -15c-37 -82 35 -156 -35 -253c81 29 146 97 207 193z" />
    <glyph glyph-name="t.st02" horiz-adv-x="907" 
d="M907 181l15 -8c-50 -97 -120 -251 -203 -208c-38 20 -60 63 -52 107c3 20 7 40 13 59c-102 -139 -255 -275 -416 -279c-54 -3 -106 13 -151 49c-55 45 -83 113 -80 179c-2 91 59 292 222 317c31 5 75 -10 82 -67c4 -20 -14 -9 -11 -5c-7 42 -37 59 -65 53
c-139 -17 -208 -224 -205 -322c10 -120 102 -185 203 -189c168 -7 351 187 440 323v-1c17 45 39 88 63 131l31 54c-45 15 -88 30 -134 33c-35 2 -70 -5 -104 -17c-17 -6 -42 -26 -55 -39c-11 -10 -22 -2 -18 9c25 30 55 47 90 56c62 14 122 6 181 -12c15 -5 39 -12 48 -12
c9 14 16 24 24 38l57 96c8 16 37 15 28 -6c-13 -30 -28 -59 -42 -88l-28 -53c46 -13 89 -25 133 -9c12 5 24 16 31 27c8 13 12 17 24 7c-5 -21 -21 -40 -40 -47c-42 -16 -79 -9 -122 -1c-11 2 -21 5 -33 8c-51 -94 -104 -186 -129 -291c-4 -16 -4 -35 -2 -52
c2 -22 17 -36 37 -43c66 -23 139 154 168 203z" />
    <glyph glyph-name="u.st02" horiz-adv-x="1021" 
d="M1021 181l15 -8c-38 -68 -92 -178 -163 -254c-30 -29 -70 -21 -91 16c-19 32 -17 68 -9 103c6 26 3 17 15 54c-23 -30 -50 -59 -78 -82c-17 -14 -38 -19 -58 -8c-20 10 -29 29 -29 51c0 26 4 50 11 73c-127 -153 -237 -263 -421 -251c-55 2 -105 22 -147 61
c-51 50 -72 121 -65 187c7 90 85 284 249 296c31 2 74 -17 77 -74c2 -20 -15 -8 -12 -4c-3 42 -32 61 -60 59c-140 -5 -227 -206 -232 -304c-1 -120 85 -194 185 -206c197 -24 363 184 469 319l17 22c8 10 18 12 31 2c-29 -66 -70 -127 -70 -196c1 -26 18 -34 37 -17
c25 21 48 44 68 69c35 48 67 98 101 147c8 13 18 21 34 14c3 -2 6 -13 4 -18c-8 -20 -16 -40 -25 -60c-29 -66 -50 -105 -63 -177c-4 -19 -2 -41 3 -60c6 -22 24 -25 40 -11c66 55 164 250 167 257z" />
    <glyph glyph-name="v.st02" horiz-adv-x="967" 
d="M967 181l15 -8c-55 -93 -127 -124 -159 -61c-33 -48 -51 -82 -84 -111c-29 -26 -56 -14 -62 23c-6 39 -4 78 4 117c-152 -177 -304 -299 -478 -286c-135 11 -213 97 -200 224c7 90 85 284 249 296c31 2 74 -17 77 -74c2 -20 -15 -8 -12 -4c-3 42 -32 61 -60 59
c-140 -5 -227 -206 -232 -304c-1 -120 82 -169 182 -180c187 -20 381 180 487 312c4 8 10 11 21 8c12 -3 13 -12 11 -23c-4 -22 -39 -154 -15 -168c21 4 74 75 101 130c-28 62 -29 319 98 300c27 -4 38 -35 33 -68c-18 -88 -63 -157 -106 -229c22 -76 104 -7 130 47z
M833 160c55 85 89 154 86 224c-2 37 -34 1 -40 -8c-42 -63 -47 -140 -46 -216z" />
    <glyph glyph-name="w.st02" horiz-adv-x="1036" 
d="M1036 181l15 -8c-44 -87 -104 -160 -168 -124c-9 -14 -23 -40 -35 -58c-14 -20 -29 -41 -47 -58c-28 -28 -56 -19 -66 20c-11 48 -6 93 2 138c-18 -32 -38 -61 -62 -87c-10 -11 -26 -19 -38 -9c-30 27 -14 86 -3 117c7 22 16 45 26 66c-146 -166 -293 -277 -460 -265
c-135 11 -213 97 -200 224c7 90 85 284 249 296c31 2 74 -17 77 -74c2 -20 -15 -8 -12 -4c-3 42 -32 61 -60 59c-140 -5 -227 -206 -232 -304c-1 -120 82 -169 182 -180c187 -20 382 181 488 313c0 1 1 2 2 2c11 15 37 11 29 -10c-20 -74 -73 -152 -66 -227
c44 52 71 111 102 169c5 11 11 19 24 14s11 -14 8 -25c-12 -44 -25 -88 -33 -133c-1 -3 -17 -128 30 -86c36 33 54 70 75 112c-41 55 -39 119 -25 183c8 36 21 71 35 106c6 15 16 30 28 42c24 25 56 18 70 -14c33 -75 -40 -229 -73 -294l-8 -17c68 -41 145 113 146 116z
M937 384c-45 -33 -101 -234 -62 -299l15 34c32 73 90 193 47 265z" />
    <glyph glyph-name="x.st02" horiz-adv-x="928" 
d="M663 206c-119 -153 -282 -316 -460 -304c-126 10 -180 76 -196 164c-17 98 1 195 49 275c44 73 114 141 210 148c31 2 74 -17 77 -74c2 -20 -15 -8 -12 -4c-3 42 -32 61 -60 59c-79 -3 -146 -68 -189 -141c-49 -83 -65 -170 -50 -260c12 -75 51 -132 166 -152
c145 -25 345 155 452 300c17 27 49 43 59 42c40 -4 48 -48 51 -104c38 36 73 77 90 136c4 20 24 23 22 4c-15 -71 -68 -125 -108 -166c5 -33 7 -67 17 -98c22 -68 75 19 87 41c27 46 59 108 60 109l15 -8c-21 -37 -40 -78 -60 -113c-23 -39 -56 -98 -104 -70
c-48 30 -45 77 -49 119c-46 -36 -138 -95 -149 -188c-14 -2 -19 3 -18 16c14 97 110 150 165 197l-4 56c-4 52 -28 62 -61 16z" />
    <glyph glyph-name="y.st02" horiz-adv-x="1000" 
d="M683 20c36 26 62 65 87 101c37 54 68 112 101 168c16 20 36 -7 15 -41c-53 -110 -91 -233 -129 -352c121 43 228 252 243 285c3 -2 12 -4 16 -6c-81 -155 -158 -263 -267 -303c-23 -63 -51 -134 -95 -186c-45 -51 -90 -100 -154 -61c-30 19 -42 50 -35 84
c11 56 49 91 96 119c42 25 103 43 150 55c25 60 44 140 65 210c-16 -18 -30 -38 -47 -55c-16 -16 -32 -32 -51 -43c-26 -16 -49 -4 -56 26c-8 37 -2 73 10 108c8 21 17 43 27 64c-138 -169 -249 -293 -445 -281c-55 2 -105 22 -147 61c-51 50 -72 121 -65 187
c7 90 85 284 249 296c31 2 74 -17 77 -74c2 -20 -15 -8 -12 -4c-3 42 -32 61 -60 59c-140 -5 -227 -206 -232 -304c-1 -120 85 -194 185 -206c210 -26 384 212 489 344c1 2 4 3 6 4c7 3 18 4 25 2c10 -4 9 -14 4 -23c-14 -26 -27 -52 -42 -78c-22 -36 -79 -208 -8 -156z
M708 -136c-40 -15 -88 -28 -127 -45c-29 -13 -54 -33 -71 -60c-11 -17 -19 -35 -24 -54c-7 -27 3 -52 22 -63c83 -47 185 167 200 222z" />
    <glyph glyph-name="z.st02" horiz-adv-x="834" 
d="M577 258c61 45 122 16 115 -52c-5 -35 -21 -65 -45 -91c-17 -17 -35 -34 -51 -52c-5 -6 -11 -17 -9 -25c7 -38 21 -53 26 -116c101 30 172 162 221 259l16 -6c-67 -136 -135 -247 -237 -273c-3 -36 -4 -69 -10 -102c-12 -70 -38 -136 -82 -192c-36 -46 -86 -69 -144 -63
c-43 4 -73 36 -78 79c-8 57 14 105 51 145c66 73 143 117 227 144c0 38 -8 75 -24 110c-11 26 -8 44 13 63c17 16 32 35 47 53c20 23 33 52 37 82c-2 47 -31 43 -62 20c-55 -40 -85 -93 -126 -138c-106 -115 -235 -210 -373 -201c-126 10 -180 76 -196 164
c-17 98 1 195 49 275c44 73 114 141 210 148c31 2 74 -17 77 -74c2 -20 -15 -8 -12 -4c-3 42 -32 61 -60 59c-79 -3 -146 -68 -189 -141c-49 -83 -65 -170 -50 -260c12 -75 51 -132 166 -152c111 -19 250 81 360 195c13 13 91 118 133 146zM578 -112
c-70 -16 -154 -69 -204 -128c-37 -45 -81 -155 -16 -191c38 -22 98 10 120 39c39 51 67 110 82 173c9 34 12 70 18 107z" />
    <glyph glyph-name="a.en02" horiz-adv-x="628" 
d="M252 -50c189 62 374 322 358 444c-10 77 -82 132 -168 79c-5 -3 -10 -8 -16 -11c-10 -5 -22 2 -7 17c10 10 21 16 33 22c81 30 170 -9 175 -105c9 -190 -193 -406 -372 -460c-20 -6 -46 -11 -71 -12c-131 -2 -151 108 -116 183c-22 -24 -45 -51 -70 -68
c-19 -12 -56 -23 -56 12c-2 53 40 119 82 153c7 5 14 10 22 14c29 15 51 11 73 -15c6 9 11 18 19 26c5 6 14 11 22 12c18 3 27 -6 18 -23l-61 -119c-55 -104 -4 -195 135 -149zM106 185c-10 11 -16 30 -50 5c-30 -24 -69 -74 -78 -119c-3 -14 0 -20 3 -21
c25 -8 100 109 125 135z" />
    <glyph glyph-name="b.en02" horiz-adv-x="868" 
d="M78 -138c-82 -59 -107 2 -78 69c27 64 84 129 135 168c13 10 29 20 45 29c1 9 1 17 1 26c-1 80 -173 -132 -188 -157c-1 -2 -3 -6 -5 -7c-14 -3 -33 -9 -29 13c31 198 104 376 219 535c46 63 130 145 179 81c77 -101 -193 -392 -321 -457c-15 -34 -26 -94 -31 -124
c35 48 89 126 147 145c41 13 59 -6 65 -36c158 73 398 102 540 66c89 -23 139 -93 93 -178c-7 -11 -13 -17 -25 -25c-18 -10 -21 -1 -16 10l12 14c64 75 8 133 -70 156c-138 40 -381 10 -532 -59c-3 -110 -56 -206 -141 -269zM57 228l-16 -40c155 96 333 319 304 398
c-22 59 -86 -1 -106 -29c-74 -102 -135 -212 -182 -329zM177 109l-29 -19c-53 -40 -108 -96 -133 -159c-22 -55 -21 -102 49 -32c62 57 99 133 113 210z" />
    <glyph glyph-name="c.en02" horiz-adv-x="639" 
d="M405 32c103 72 210 189 210 314c0 17 -4 32 -14 48c-26 42 -80 52 -121 32l-18 -9c-10 -3 -18 4 -4 18c10 10 23 13 36 17c36 8 69 3 100 -18c19 -13 40 -36 44 -68c17 -136 -131 -286 -229 -353c-131 -87 -410 -173 -436 54c-6 62 18 116 66 159c22 20 49 29 77 26
c10 -1 31 -7 26 -18c-28 1 -47 -8 -64 -23c-42 -39 -65 -85 -67 -141c22 -218 291 -110 394 -38z" />
    <glyph glyph-name="d.en02" horiz-adv-x="812" 
d="M112 75l-35 -39c-51 -57 -113 -54 -114 32c3 51 20 96 54 134c38 40 94 39 123 12c41 119 96 226 180 321c73 84 166 106 148 -34c-20 -147 -208 -307 -303 -385c-5 -49 0 -102 17 -146c30 -77 92 -103 164 -101c238 7 452 196 443 407c-3 67 -47 113 -145 64
c-10 -3 -22 9 -4 18c119 62 169 -35 172 -78c15 -235 -233 -435 -477 -431c-69 1 -132 24 -174 84c-30 40 -46 91 -49 142zM171 147c123 111 289 249 269 418c-18 36 -67 -20 -81 -36c-92 -111 -147 -246 -188 -382zM57 43l55 58c7 17 14 55 16 71c2 18 -2 31 -17 39
c-38 17 -78 -76 -89 -102c-13 -29 -28 -133 35 -66z" />
    <glyph glyph-name="e.en02" horiz-adv-x="589" 
d="M567 379c-6 70 -77 108 -135 80l-18 -9c-10 -3 -18 4 -4 18c10 10 23 13 36 17c36 8 69 3 100 -18c19 -13 37 -41 41 -73c9 -72 -14 -146 -55 -212c-83 -134 -231 -235 -384 -245c-75 -5 -145 17 -172 93c-21 57 2 137 66 202c27 27 75 25 72 -23
c-4 -58 -57 -84 -106 -99c3 -112 66 -151 142 -153c130 -3 291 111 363 228c38 62 59 130 54 194zM11 125c34 9 72 44 79 77c5 24 -7 34 -23 16c-18 -21 -41 -49 -56 -93z" />
    <glyph glyph-name="f.en02" horiz-adv-x="689" 
d="M48 152c59 -83 171 -106 277 -92c137 16 280 94 332 202c29 65 -13 133 -76 138l-21 1c-10 2 -14 12 6 17c14 4 26 0 40 -3c35 -12 61 -33 77 -66c9 -20 11 -54 -2 -84c-51 -122 -204 -205 -351 -223c-99 -11 -213 7 -286 77c5 -38 4 -74 3 -104
c-3 -89 -16 -182 -50 -267c-13 -29 -39 -79 -76 -73c-16 3 -22 15 -27 30c-11 45 -8 91 -2 136c16 102 45 201 90 297c38 94 84 186 146 271c13 21 30 41 49 59c8 8 21 14 34 17c22 5 33 -7 32 -29c0 -31 -15 -59 -29 -86c-44 -85 -69 -135 -166 -218zM18 127l-18 -45
c-39 -110 -77 -220 -83 -337c-3 -12 -2 -25 -1 -38c16 -50 53 25 61 40c40 107 51 218 50 329c-1 15 -1 37 -9 51zM213 465c-74 -82 -129 -190 -173 -288c46 31 97 99 130 151c27 42 70 133 43 137z" />
    <glyph glyph-name="g.en02" horiz-adv-x="844" 
d="M37 49c-12 -8 -38 -18 -53 -9c-34 19 -15 81 -5 105c11 29 30 53 62 70c35 18 61 9 80 -28c10 21 19 32 29 48c13 17 50 26 39 -6c-44 -73 -84 -161 -103 -224c219 133 552 188 700 90c105 -70 54 -213 -54 -213c-14 0 -34 7 -1 13c100 19 124 138 39 188
c-155 92 -484 30 -692 -107l-18 -57c-13 -33 -24 -67 -37 -98c-23 -55 -53 -107 -102 -137c-24 -14 -46 -15 -46 29c-3 101 61 191 163 263c13 39 19 68 39 106c-11 -9 -28 -25 -40 -33zM22 -82c3 8 6 16 8 24c-79 -62 -131 -137 -136 -218c0 -16 9 -20 20 -11
c38 33 66 88 82 132c13 32 22 62 26 73zM-4 51c29 -7 90 75 106 102c7 13 -5 43 -18 50c-16 10 -29 -2 -40 -11c-35 -31 -70 -97 -48 -141z" />
    <glyph glyph-name="h.en02" horiz-adv-x="767" 
d="M546 281c-10 -3 -24 6 -5 12c220 69 262 -132 202 -271c-61 -141 -216 -227 -366 -226c-186 0 -343 124 -246 346l3 10c-56 -36 -99 -97 -140 -141c-5 -5 -13 -11 -20 -11c-12 -2 -17 5 -15 18c16 99 46 192 89 281c45 96 123 271 211 313c43 17 76 -4 78 -51
c4 -139 -180 -317 -289 -382c-9 -17 -27 -81 -33 -100c15 15 25 27 36 37c20 19 41 37 62 54c12 10 35 11 50 1s13 -26 8 -40c-87 -208 20 -322 208 -318c142 3 288 89 343 208c58 127 30 314 -176 260zM58 207c101 70 236 208 249 327c2 22 0 43 -17 59
c-50 -25 -203 -276 -232 -386z" />
    <glyph glyph-name="i.en02" horiz-adv-x="665" 
d="M525 419c90 -31 148 -128 140 -237c-9 -110 -83 -194 -177 -247c-144 -81 -390 -99 -472 40c-42 70 -45 146 -14 215c15 34 35 67 56 57c4 -1 10 -21 7 -26c-44 -80 -63 -179 -25 -238c101 -156 344 -87 443 -34c101 54 155 144 163 234c9 99 -48 191 -137 223
c-29 10 -16 24 16 13zM104 360c5 -8 -19 -35 -32 -47c-3 -2 -11 -2 -14 0c-12 12 6 41 14 50c10 11 22 11 32 -3z" />
    <glyph glyph-name="j.en02" horiz-adv-x="739" 
d="M33 237c11 13 23 11 38 0c-39 -64 -65 -134 -88 -206c219 133 549 186 697 88c105 -70 54 -213 -54 -213c-14 0 -34 7 -1 13c100 19 124 138 39 188c-155 92 -484 30 -692 -107l-18 -57c-13 -33 -24 -67 -37 -98c-23 -55 -53 -107 -102 -137c-24 -14 -46 -15 -46 29
c-3 101 65 192 167 264c27 84 59 186 97 236zM-84 -58c3 8 6 16 8 24c-79 -62 -131 -137 -136 -218c0 -16 9 -20 20 -11c38 33 66 88 82 132c13 32 22 62 26 73zM115 364c6 -8 -17 -35 -29 -47c-3 -2 -11 -2 -14 0c-13 12 4 41 11 50c9 11 21 11 32 -3z" />
    <glyph glyph-name="k.en02" horiz-adv-x="729" 
d="M92 -26c20 -70 79 -118 141 -141c165 -60 378 50 446 197c58 127 31 310 -175 256c-10 -3 -24 6 -5 12c220 69 262 -132 202 -271c-76 -176 -315 -267 -485 -210c-71 24 -130 73 -151 136c-11 35 -19 75 -16 108c-19 -20 -38 -47 -49 -70c-5 -10 -2 -17 -15 -14
s-18 10 -16 24c8 73 20 146 41 218c39 118 92 230 168 331c28 38 48 66 90 91c117 61 118 -53 82 -134c-65 -147 -180 -254 -313 -337c-13 -38 -25 -80 -28 -114c27 39 63 73 96 108c15 16 63 61 82 37c5 -8 4 -23 1 -32c-25 -54 -71 -74 -104 -78c-3 -22 -4 -75 8 -117z
M45 201c100 48 223 189 286 319c26 54 12 144 -32 105c-22 -19 -42 -41 -60 -65c-56 -72 -98 -154 -141 -234c-20 -39 -27 -56 -53 -125zM168 187c-29 -10 -56 -48 -78 -74c41 3 86 61 78 74z" />
    <glyph glyph-name="l.en02" horiz-adv-x="672" 
d="M-15 110c12 87 44 167 85 244c38 72 78 143 129 207c18 21 39 42 61 59c33 24 66 7 72 -33c12 -76 -72 -193 -109 -242c-57 -76 -123 -131 -198 -179c-49 -233 117 -358 311 -323c111 20 216 88 269 175c72 119 66 298 -144 267c-11 -1 -23 9 -4 13
c226 44 240 -149 165 -280c-59 -103 -167 -171 -281 -190c-192 -31 -381 82 -356 282zM69 271c-12 -25 -25 -52 -36 -80c59 36 120 93 174 165c41 55 132 198 99 239c-32 40 -221 -289 -237 -324z" />
    <glyph glyph-name="m.en02" horiz-adv-x="782" 
d="M723 318c-23 17 -55 24 -96 15c-6 -1 -12 -4 -19 -5c-11 -1 -20 9 -1 18c13 7 25 9 39 10c30 1 58 -7 81 -22c40 -26 55 -65 54 -109c-3 -129 -133 -261 -293 -325c-105 -42 -285 -56 -285 94c-1 74 49 143 73 189c-18 -18 -37 -36 -54 -56c-32 -36 -62 -74 -93 -111
c-5 -5 -9 -12 -14 -16c-7 -4 -18 -10 -23 -7c-26 17 2 78 11 99c16 34 66 114 66 136l-16 -14l-161 -179c-11 -11 -22 -24 -34 -33c-7 -5 -19 -6 -27 -3c-4 1 -7 17 -4 23c24 54 49 107 74 161c11 18 46 14 39 -3l-59 -127l27 33c47 49 85 95 129 143c18 18 48 48 64 39
c20 -14 7 -50 -1 -72c-7 -17 -16 -35 -25 -52c-19 -36 -40 -71 -60 -106c1 -1 2 -1 3 -1c46 50 94 107 141 157c10 20 64 38 56 -9c-10 -58 -79 -123 -80 -190c0 -138 167 -118 253 -81c150 63 273 199 277 312c1 36 -10 69 -42 92z" />
    <glyph glyph-name="n.en02" horiz-adv-x="683" 
d="M139 105c19 42 44 81 35 89c-55 -32 -126 -122 -171 -167c-6 -7 -13 -12 -21 -15c-17 -8 -35 5 -30 23c14 47 30 94 46 141c4 10 11 17 24 13s14 -15 11 -27c-4 -12 -39 -96 -33 -102c36 40 152 168 206 153c30 -14 1 -68 -22 -118c-21 -44 -35 -97 -2 -138
c45 -59 157 -40 224 -11c150 63 273 199 277 312c1 36 -10 69 -42 92c-23 17 -55 24 -96 15c-6 -1 -12 -4 -19 -5c-11 -1 -20 9 -1 18c13 7 25 9 39 10c30 1 58 -7 81 -22c40 -26 55 -65 54 -109c-3 -129 -133 -261 -293 -325c-73 -29 -182 -45 -242 -1
c-56 41 -50 120 -25 174z" />
    <glyph glyph-name="o.en02" horiz-adv-x="681" 
d="M-2 -5c-30 11 -46 70 -33 107c7 21 23 46 35 60c-1 8 0 16 0 23c1 25 12 51 23 70c56 91 117 18 101 -63c-5 -26 -18 -75 -37 -118c107 -63 231 -59 342 -20c89 31 172 85 210 151c16 27 24 58 22 90c-3 35 -25 70 -66 84c-12 4 -26 6 -42 7c-5 22 62 3 77 -5
c31 -17 49 -51 51 -85c3 -39 -9 -75 -29 -107c-44 -69 -130 -123 -220 -154c-120 -42 -247 -38 -354 22c-22 -42 -49 -73 -80 -62zM70 87c18 36 28 75 37 113c8 44 -10 116 -61 47c-41 -61 -29 -130 24 -160zM11 9c20 0 39 33 49 59c-18 11 -34 25 -44 42
c-24 -21 -31 -101 -5 -101z" />
    <glyph glyph-name="p.en02" horiz-adv-x="894" 
d="M161 115l4 8c17 35 28 80 19 116c-136 -45 -325 -532 -361 -652c-14 -26 -32 -10 -29 0c53 234 91 373 225 633c5 10 16 19 24 9c17 -21 -92 -230 -120 -342c52 118 148 331 236 371c56 26 71 -40 48 -119c71 33 142 60 167 69c181 65 347 77 461 1
c105 -70 54 -213 -54 -213c-14 0 -34 7 -1 13c100 19 124 138 39 188c-113 67 -265 54 -432 -5c-64 -23 -126 -47 -187 -80c-12 -31 -27 -64 -48 -90c-19 -23 -43 -40 -75 -42c-25 -1 -41 7 -37 32c6 32 47 58 71 74c15 10 32 20 50 29zM71 1c15 -5 31 9 49 36
c8 12 16 26 24 41c-24 -6 -97 -69 -73 -77z" />
    <glyph glyph-name="q.en02" horiz-adv-x="732" 
d="M74 -393c-9 -15 -21 -29 -35 -40c-27 -23 -60 -11 -68 24c-8 32 -3 64 5 95c20 76 55 146 89 217c36 74 76 147 108 221c-41 -47 -80 -91 -126 -127c-18 -15 -41 -25 -65 -12c-23 14 -25 39 -24 62c7 100 56 177 140 229c54 34 104 5 116 -68l51 82c6 9 10 19 23 13
c12 -6 11 -16 6 -26l-62 -124l-89 -183c238 -88 529 53 561 300c9 69 -11 130 -106 107l-20 -5c-10 -1 -13 10 7 16c115 35 152 -42 146 -114c-22 -262 -359 -415 -584 -326c19 -126 -15 -242 -73 -341zM22 2c48 26 111 108 145 150c12 15 16 39 19 60c3 18 -1 39 -20 49
c-20 11 -36 -4 -50 -15c-47 -38 -79 -87 -104 -140c-12 -26 -58 -138 10 -104zM130 -57c-42 -77 -78 -164 -115 -244c-15 -32 -25 -66 -23 -102c4 -28 19 -32 38 -16c13 13 26 28 35 44c59 96 70 216 65 318z" />
    <glyph glyph-name="r.en02" horiz-adv-x="690" 
d="M76 96c12 24 12 45 -9 67c-13 14 -29 25 -32 47l-21 -39l-15 8l78 153c6 11 15 12 25 8c11 -4 12 -12 8 -23l-25 -74c-8 -29 -5 -56 15 -80c19 -21 23 -45 13 -72c-64 -160 4 -273 148 -280c153 -9 314 91 376 225c58 127 33 304 -173 250c-10 -3 -24 6 -5 12
c220 69 262 -132 202 -271c-64 -148 -257 -239 -404 -230c-149 9 -257 118 -181 299z" />
    <glyph glyph-name="s.en02" horiz-adv-x="739" 
d="M-59 -18c9 52 45 90 73 121c-18 41 -19 91 -6 121c12 23 35 27 50 22c9 -3 9 -16 3 -16c-39 2 -43 -42 -20 -99c172 135 409 198 599 82c60 -36 102 -89 99 -158c-3 -68 -54 -128 -141 -131c-15 0 -31 14 2 14c76 0 118 56 121 116c4 64 -34 110 -87 142
c-186 112 -434 45 -586 -82c24 -55 25 -110 9 -144c-32 -66 -129 -59 -116 12zM26 -33c17 24 13 82 -5 118c-26 -26 -48 -51 -64 -99c-15 -42 30 -74 69 -19z" />
    <glyph glyph-name="t.en02" horiz-adv-x="656" 
d="M93 374c-45 15 -88 30 -134 33c-35 2 -70 -5 -104 -17c-17 -6 -42 -26 -55 -39c-11 -10 -22 -2 -18 9c25 30 55 47 90 56c62 14 122 6 181 -12c15 -5 39 -12 48 -12c9 14 16 24 24 38l57 96c8 16 37 15 28 -6c-13 -30 -28 -59 -42 -88l-28 -53c46 -13 89 -25 133 -9
c12 5 24 16 31 27c8 13 12 17 24 7c-5 -21 -21 -40 -40 -47c-42 -16 -79 -9 -122 -1c-11 2 -21 5 -33 8c-81 -147 -201 -331 -52 -461c61 -53 153 -77 248 -60c111 20 216 88 269 175c72 119 66 298 -144 267c-11 -1 -23 9 -4 13c226 44 240 -149 165 -280
c-59 -103 -167 -171 -281 -190c-100 -16 -201 5 -271 56c-160 116 -75 312 30 490z" />
    <glyph glyph-name="u.en02" horiz-adv-x="756" 
d="M725 82c58 127 33 304 -173 250c-10 -3 -24 6 -5 12c220 69 262 -132 202 -271c-66 -147 -233 -238 -383 -239c-76 0 -147 27 -194 92c-38 52 -40 126 -32 176c-44 -53 -52 -62 -80 -85c-17 -14 -47 -26 -67 -15c-20 10 -29 29 -29 51c0 69 29 126 71 178
c8 10 18 12 31 2c-29 -66 -70 -127 -70 -196c1 -26 29 -29 48 -12c72 61 106 136 158 211c8 13 18 21 34 14c3 -2 6 -13 4 -18c-8 -20 -16 -40 -25 -60c-31 -67 -60 -168 -19 -237c41 -68 115 -86 182 -83c149 6 287 100 347 230z" />
    <glyph glyph-name="v.en02" horiz-adv-x="717" 
d="M142 137c-48 -77 -67 -122 -98 -149c-29 -26 -56 -14 -62 23c-7 52 -2 117 16 167c4 12 10 18 23 14c12 -3 13 -12 11 -23c-4 -22 -40 -167 -16 -181c16 6 67 81 113 168l-11 25c-37 92 -13 180 22 267c6 15 16 30 28 42c24 25 56 18 70 -14c33 -75 -38 -230 -83 -312
l6 -10c20 -31 46 -56 81 -73c174 -89 405 30 478 188c58 127 33 304 -173 250c-10 -3 -24 6 -5 12c220 69 262 -132 202 -271c-80 -185 -321 -274 -500 -199c-41 18 -76 43 -102 76zM142 185c47 107 105 227 62 299c-43 -34 -102 -225 -62 -299z" />
    <glyph glyph-name="w.en02" horiz-adv-x="829" 
d="M186 -9c-14 -20 -29 -41 -47 -58c-28 -28 -56 -19 -66 20c-11 48 -6 93 2 138c-18 -32 -38 -61 -62 -87c-10 -11 -26 -19 -38 -9c-30 27 -14 86 -3 117c14 42 34 82 52 122c4 7 9 14 15 17c5 3 14 3 21 1c2 -1 3 -12 1 -17c-20 -74 -73 -152 -66 -227
c44 52 71 111 102 169c5 11 11 19 24 14s11 -14 8 -25c-12 -44 -25 -88 -33 -133c-1 -3 -17 -128 30 -86c35 33 53 68 74 109c-53 101 -27 197 11 292c6 15 16 30 28 42c24 25 56 18 70 -14c33 -75 -38 -231 -83 -313c34 -72 141 -116 232 -112c139 6 279 101 333 218
c58 127 33 304 -173 250c-10 -3 -24 6 -5 12c220 69 262 -132 202 -271c-60 -138 -208 -222 -354 -225c-94 -2 -190 29 -248 102c-8 -14 -18 -33 -27 -46zM213 85c47 107 105 227 62 299c-43 -34 -97 -223 -62 -299z" />
    <glyph glyph-name="x.en02" horiz-adv-x="732" 
d="M139 93c11 -109 69 -173 175 -178c153 -9 314 91 376 225c58 127 33 304 -173 250c-10 -3 -24 6 -5 12c220 69 262 -132 202 -271c-64 -148 -257 -239 -404 -230c-104 7 -199 71 -206 173l-3 35c-46 -36 -138 -95 -149 -188c-14 -2 -19 3 -18 16c14 97 110 150 165 197
l-4 56c-6 53 -34 63 -62 15c-4 -8 -10 -19 -19 -34l-15 8l17 34c13 26 33 49 64 46c40 -3 48 -48 51 -104c38 36 73 77 90 136c4 20 24 23 22 4c-15 -71 -68 -125 -108 -166c1 -12 2 -24 4 -36z" />
    <glyph glyph-name="y.en02" horiz-adv-x="893" 
d="M138 9c219 133 549 186 697 88c105 -70 54 -213 -54 -213c-14 0 -34 7 -1 13c100 19 124 138 39 188c-155 92 -484 30 -692 -107l-18 -57c-13 -33 -24 -67 -37 -98c-23 -55 -53 -107 -102 -137c-24 -14 -46 -15 -46 29c-3 101 65 192 167 264c14 41 24 80 39 118
c-16 -18 -38 -42 -55 -59c-16 -16 -32 -32 -51 -43c-26 -16 -49 -4 -56 26c-8 37 -2 73 10 108c17 44 39 87 59 130c3 6 7 14 13 16c7 3 18 4 25 2c10 -4 9 -14 4 -23c-14 -26 -27 -52 -42 -78c-22 -36 -79 -208 -8 -156c36 26 62 65 87 101c37 54 68 112 101 168
c16 20 36 -7 15 -41l-15 -32c-49 -115 -56 -135 -79 -207zM71 -80c3 8 6 16 8 24c-79 -62 -131 -137 -136 -218c0 -16 9 -20 20 -11c38 33 66 88 82 132c13 32 22 62 26 73z" />
    <glyph glyph-name="z.en02" horiz-adv-x="924" 
d="M-48 -251c4 71 47 127 108 183c-1 13 -3 24 -4 33c-3 20 -10 39 -19 58c-11 26 -8 44 13 63c17 16 32 35 47 53c20 23 33 52 37 82c0 10 -1 19 -4 26c-12 30 -55 8 -70 -7c-12 -12 -27 -32 -46 -69l-15 8c28 60 54 91 77 99c37 15 83 7 96 -32c4 -12 5 -26 4 -40
c-5 -35 -21 -65 -45 -91c-17 -17 -35 -34 -51 -52c-5 -6 -11 -17 -9 -25c5 -25 12 -40 18 -66l3 -14c23 16 74 52 99 67c219 124 533 171 677 76c105 -70 54 -213 -54 -213c-14 0 -34 7 -1 13c100 19 124 138 39 188c-147 87 -452 36 -660 -87c-36 -19 -68 -42 -97 -67
c8 -79 -10 -166 -62 -213c-41 -41 -81 -32 -81 27zM19 -257c7 8 13 17 19 26c21 39 25 91 24 134c-46 -48 -75 -100 -84 -157c-8 -38 22 -22 41 -3z" />
    <glyph glyph-name="Aacute" unicode="&#xc1;" horiz-adv-x="881" 
d="M154 215c53 1 96 -22 90 -79c76 34 170 26 245 1c105 162 201 322 361 385c-161 -1 -377 -105 -405 -236c-19 7 -33 26 -18 61c78 177 406 208 532 192l12 -25c-51 -72 -289 -413 -253 -672c1 -9 6 -18 9 -29c-12 -12 -34 -7 -40 15c-19 77 -6 202 15 272
c-60 -28 -128 -16 -182 6c-83 -116 -214 -253 -335 -250c-109 -1 -186 71 -185 176c1 96 49 180 154 183zM479 123c-82 28 -215 30 -269 -45c-17 -13 -35 -4 -25 17c4 14 12 26 16 39c10 44 -8 61 -48 60c-91 -3 -131 -78 -131 -160c0 -84 54 -161 145 -155
c122 8 251 157 312 244zM931 518c-144 -38 -250 -165 -333 -286l-69 -109c49 -22 142 -37 183 10c66 147 98 218 219 385zM778 651c30 30 55 52 78 70c12 6 42 -3 19 -23l-72 -57c-14 -10 -51 -10 -25 10z" />
    <glyph glyph-name="Agrave" unicode="&#xc0;" horiz-adv-x="881" 
d="M154 215c53 1 96 -22 90 -79c76 34 170 26 245 1c105 162 201 322 361 385c-161 -1 -377 -105 -405 -236c-19 7 -33 26 -18 61c78 177 406 208 532 192l12 -25c-51 -72 -289 -413 -253 -672c1 -9 6 -18 9 -29c-12 -12 -34 -7 -40 15c-19 77 -6 202 15 272
c-60 -28 -128 -16 -182 6c-83 -116 -214 -253 -335 -250c-109 -1 -186 71 -185 176c1 96 49 180 154 183zM479 123c-82 28 -215 30 -269 -45c-17 -13 -35 -4 -25 17c4 14 12 26 16 39c10 44 -8 61 -48 60c-91 -3 -131 -78 -131 -160c0 -84 54 -161 145 -155
c122 8 251 157 312 244zM931 518c-144 -38 -250 -165 -333 -286l-69 -109c49 -22 142 -37 183 10c66 147 98 218 219 385zM810 642c-18 20 -35 40 -52 60c-13 20 17 22 27 12c20 -20 38 -42 56 -63c3 -3 6 -10 4 -12c-8 -15 -27 -5 -35 3z" />
    <glyph glyph-name="Acircumflex" unicode="&#xc2;" horiz-adv-x="881" 
d="M154 215c53 1 96 -22 90 -79c76 34 170 26 245 1c105 162 201 322 361 385c-161 -1 -377 -105 -405 -236c-19 7 -33 26 -18 61c78 177 406 208 532 192l12 -25c-51 -72 -289 -413 -253 -672c1 -9 6 -18 9 -29c-12 -12 -34 -7 -40 15c-19 77 -6 202 15 272
c-60 -28 -128 -16 -182 6c-83 -116 -214 -253 -335 -250c-109 -1 -186 71 -185 176c1 96 49 180 154 183zM479 123c-82 28 -215 30 -269 -45c-17 -13 -35 -4 -25 17c4 14 12 26 16 39c10 44 -8 61 -48 60c-91 -3 -131 -78 -131 -160c0 -84 54 -161 145 -155
c122 8 251 157 312 244zM931 518c-144 -38 -250 -165 -333 -286l-69 -109c49 -22 142 -37 183 10c66 147 98 218 219 385zM811 671c-15 -16 -28 -31 -41 -46s-38 -15 -18 10c15 19 30 39 46 56c12 13 28 10 36 -5c10 -19 27 -39 35 -58c6 -28 -19 -20 -23 -14
c-14 19 -26 38 -35 57z" />
    <glyph glyph-name="Atilde" unicode="&#xc3;" horiz-adv-x="881" 
d="M154 215c53 1 96 -22 90 -79c76 34 170 26 245 1c105 162 201 322 361 385c-161 -1 -377 -105 -405 -236c-19 7 -33 26 -18 61c78 177 406 208 532 192l12 -25c-51 -72 -289 -413 -253 -672c1 -9 6 -18 9 -29c-12 -12 -34 -7 -40 15c-19 77 -6 202 15 272
c-60 -28 -128 -16 -182 6c-83 -116 -214 -253 -335 -250c-109 -1 -186 71 -185 176c1 96 49 180 154 183zM479 123c-82 28 -215 30 -269 -45c-17 -13 -35 -4 -25 17c4 14 12 26 16 39c10 44 -8 61 -48 60c-91 -3 -131 -78 -131 -160c0 -84 54 -161 145 -155
c122 8 251 157 312 244zM931 518c-144 -38 -250 -165 -333 -286l-69 -109c49 -22 142 -37 183 10c66 147 98 218 219 385zM699 657c3 5 7 10 11 14c16 16 40 23 61 20c27 -4 42 -30 71 -23c13 3 25 14 32 21c16 3 23 -8 7 -22c-13 -11 -22 -16 -39 -19c-35 -5 -44 12 -69 20
c-12 4 -28 4 -45 -9c-9 -6 -29 -18 -29 -2z" />
    <glyph glyph-name="Adieresis" unicode="&#xc4;" horiz-adv-x="881" 
d="M153 208c53 1 96 -22 90 -79c76 34 170 26 245 1c105 162 201 322 361 385c-161 -1 -377 -105 -405 -236c-19 7 -33 26 -18 61c78 177 406 208 532 192l12 -25c-51 -72 -289 -413 -253 -672c1 -9 6 -18 9 -29c-12 -12 -34 -7 -40 15c-19 77 -6 202 15 272
c-60 -28 -128 -16 -182 6c-83 -116 -214 -253 -335 -250c-109 -1 -186 71 -185 176c1 96 49 180 154 183zM479 123c-82 28 -215 30 -269 -45c-17 -13 -35 -4 -25 17c4 14 12 26 16 39c10 44 -8 61 -48 60c-91 -3 -131 -78 -131 -160c0 -84 54 -161 145 -155
c122 8 251 157 312 244zM930 511c-144 -38 -250 -165 -333 -286l-69 -109c49 -22 142 -37 183 10c66 147 98 218 219 385zM866 658c10 17 12 31 34 39c17 2 18 -11 14 -23c-4 -8 -10 -17 -17 -25c-10 -13 -41 -12 -31 9zM794 658c10 17 12 31 34 39c17 2 18 -11 14 -23
c-4 -8 -10 -17 -17 -25c-10 -13 -41 -12 -31 9z" />
    <glyph glyph-name="Aring" unicode="&#xc5;" horiz-adv-x="881" 
d="M154 215c53 1 96 -22 90 -79c76 34 170 26 245 1c105 162 201 322 361 385c-161 -1 -377 -105 -405 -236c-19 7 -33 26 -18 61c64 146 300 193 451 195c-17 6 -27 19 -26 39c1 35 30 71 55 70c33 -1 60 -23 59 -49s-25 -52 -53 -60c17 0 33 -2 46 -3l12 -25
c-51 -72 -289 -413 -253 -672c1 -9 6 -18 9 -29c-12 -12 -34 -7 -40 15c-19 77 -6 202 15 272c-60 -28 -128 -16 -182 6c-83 -116 -214 -253 -335 -250c-109 -1 -186 71 -185 176c1 96 49 180 154 183zM479 123c-82 28 -215 30 -269 -45c-17 -13 -35 -4 -25 17
c4 14 12 26 16 39c10 44 -8 61 -48 60c-91 -3 -131 -78 -131 -160c0 -84 54 -161 145 -155c122 8 251 157 312 244zM931 518c-144 -38 -250 -165 -333 -286l-69 -109c49 -22 142 -37 183 10c66 147 98 218 219 385zM933 603c-1 2 -2 10 -5 16c-9 17 -20 17 -30 0
c-7 -13 -12 -29 -15 -44c-3 -16 7 -23 22 -18s28 25 28 46z" />
    <glyph glyph-name="Ccedilla" unicode="&#xc7;" horiz-adv-x="518" 
d="M518 181l15 -8c-66 -126 -201 -321 -337 -363c-11 -23 -21 -44 -30 -66c41 -7 51 -26 35 -66c-15 -36 -44 -55 -76 -49c-14 3 -24 10 -25 25c2 13 18 25 25 8c12 -19 20 -22 33 -4c11 15 19 33 24 50c3 10 -2 20 -17 18c-4 -1 -8 -1 -12 -1c-17 1 -20 6 -14 21
c8 19 16 38 25 57c-15 -2 -29 -2 -43 0c-74 13 -103 135 -96 201c9 96 45 183 89 267l39 72c-36 2 -68 -7 -97 -25c-11 -7 -21 -15 -30 -24c-9 -8 -15 -8 -26 1c26 52 104 70 164 67c47 76 97 147 167 205c54 44 149 89 213 49c33 -21 46 -55 30 -91
c-59 -139 -228 -190 -378 -185c-60 -58 -222 -496 -70 -515c160 -20 349 278 392 356zM207 361c126 -13 285 49 334 168c9 21 10 43 -6 62c-31 35 -125 -15 -148 -33c-76 -58 -128 -127 -180 -197z" />
    <glyph glyph-name="Egrave" unicode="&#xc8;" horiz-adv-x="521" 
d="M521 181l15 -8c-61 -132 -159 -302 -319 -296c-25 1 -51 8 -74 23c-60 37 -100 112 -88 181c22 119 129 203 242 219c-37 26 -50 60 -45 101c-84 -3 -210 -55 -236 -122c-15 -2 -19 15 -13 26c46 80 170 114 254 115c20 95 132 175 224 134c42 -21 46 -66 6 -89
c-55 -38 -130 -59 -186 -63c-9 -91 27 -95 82 -116c29 -11 10 -21 -12 -15c-93 24 -157 -14 -212 -84c-24 -30 -40 -64 -49 -99c-15 -61 2 -125 41 -161c22 -20 46 -28 71 -29c142 -3 243 176 299 283zM308 423c62 6 125 22 173 64c18 16 10 44 -13 53
c-79 25 -137 -53 -160 -117zM397 638c-18 20 -35 40 -52 60c-13 20 17 22 27 12c20 -20 38 -42 56 -63c3 -3 6 -10 4 -12c-8 -15 -27 -5 -35 3z" />
    <glyph glyph-name="Eacute" unicode="&#xc9;" horiz-adv-x="521" 
d="M521 181l15 -8c-61 -132 -159 -302 -319 -296c-25 1 -51 8 -74 23c-60 37 -100 112 -88 181c22 119 129 203 242 219c-37 26 -50 60 -45 101c-84 -3 -210 -55 -236 -122c-15 -2 -19 15 -13 26c46 80 170 114 254 115c20 95 132 175 224 134c42 -21 46 -66 6 -89
c-55 -38 -130 -59 -186 -63c-9 -91 27 -95 82 -116c29 -11 10 -21 -12 -15c-93 24 -157 -14 -212 -84c-24 -30 -40 -64 -49 -99c-15 -61 2 -125 41 -161c22 -20 46 -28 71 -29c142 -3 243 176 299 283zM308 423c62 6 125 22 173 64c18 16 10 44 -13 53
c-79 25 -137 -53 -160 -117zM379 642c30 30 55 52 78 70c12 6 42 -3 19 -23l-72 -57c-14 -10 -51 -10 -25 10z" />
    <glyph glyph-name="Ecircumflex" unicode="&#xca;" horiz-adv-x="521" 
d="M521 181l15 -8c-61 -132 -159 -302 -319 -296c-25 1 -51 8 -74 23c-60 37 -100 112 -88 181c22 119 129 203 242 219c-37 26 -50 60 -45 101c-84 -3 -210 -55 -236 -122c-15 -2 -19 15 -13 26c46 80 170 114 254 115c20 95 132 175 224 134c42 -21 46 -66 6 -89
c-55 -38 -130 -59 -186 -63c-9 -91 27 -95 82 -116c29 -11 10 -21 -12 -15c-93 24 -157 -14 -212 -84c-24 -30 -40 -64 -49 -99c-15 -61 2 -125 41 -161c22 -20 46 -28 71 -29c142 -3 243 176 299 283zM308 423c62 6 125 22 173 64c18 16 10 44 -13 53
c-79 25 -137 -53 -160 -117zM434 696c-15 -16 -28 -31 -41 -46s-38 -15 -18 10c15 19 30 39 46 56c12 13 28 10 36 -5c10 -19 27 -39 35 -58c6 -28 -19 -20 -23 -14c-14 19 -26 38 -35 57z" />
    <glyph glyph-name="Edieresis" unicode="&#xcb;" horiz-adv-x="521" 
d="M521 181l15 -8c-61 -132 -159 -302 -319 -296c-25 1 -51 8 -74 23c-60 37 -100 112 -88 181c22 119 129 203 242 219c-37 26 -50 60 -45 101c-84 -3 -210 -55 -236 -122c-15 -2 -19 15 -13 26c46 80 170 114 254 115c20 95 132 175 224 134c42 -21 46 -66 6 -89
c-55 -38 -130 -59 -186 -63c-9 -91 27 -95 82 -116c29 -11 10 -21 -12 -15c-93 24 -157 -14 -212 -84c-24 -30 -40 -64 -49 -99c-15 -61 2 -125 41 -161c22 -20 46 -28 71 -29c142 -3 243 176 299 283zM308 423c62 6 125 22 173 64c18 16 10 44 -13 53
c-79 25 -137 -53 -160 -117zM452 654c9 16 11 29 31 36c16 2 17 -10 13 -21c-4 -8 -9 -16 -16 -23c-9 -12 -37 -11 -28 8zM386 654c9 16 11 29 31 36c16 2 17 -10 13 -21c-4 -8 -9 -16 -16 -23c-9 -12 -37 -11 -28 8z" />
    <glyph glyph-name="Igrave" unicode="&#xcc;" horiz-adv-x="391" 
d="M402 510c-73 -59 -143 -101 -212 -151c-17 -13 -31 -29 -45 -45c-23 -27 -25 -57 -8 -89c-17 -9 -25 0 -31 12c-11 24 -9 47 4 70c20 35 51 60 84 82c77 52 160 98 226 166c5 5 11 11 17 12c17 3 31 -3 24 -21c-85 -174 -153 -358 -246 -529c-31 -58 -103 -177 -169 -186
c-26 -4 -47 6 -46 39c1 16 12 12 18 10c13 -34 37 -28 62 -6c48 44 73 101 99 156l58 124l156 337c3 5 5 10 9 19zM378 642c-18 20 -35 40 -52 60c-13 20 17 22 27 12c20 -20 38 -42 56 -63c3 -3 6 -10 4 -12c-8 -15 -27 -5 -35 3z" />
    <glyph glyph-name="Iacute" unicode="&#xcd;" horiz-adv-x="391" 
d="M402 510c-73 -59 -143 -101 -212 -151c-17 -13 -31 -29 -45 -45c-23 -27 -25 -57 -8 -89c-17 -9 -25 0 -31 12c-11 24 -9 47 4 70c20 35 51 60 84 82c77 52 160 98 226 166c5 5 11 11 17 12c17 3 31 -3 24 -21c-85 -174 -153 -358 -246 -529c-31 -58 -103 -177 -169 -186
c-26 -4 -47 6 -46 39c1 16 12 12 18 10c13 -34 37 -28 62 -6c48 44 73 101 99 156l58 124l156 337c3 5 5 10 9 19zM371 640c30 30 55 52 78 70c12 6 42 -3 19 -23l-72 -57c-14 -10 -51 -10 -25 10z" />
    <glyph glyph-name="Icircumflex" unicode="&#xce;" horiz-adv-x="391" 
d="M402 510c-73 -59 -143 -101 -212 -151c-17 -13 -31 -29 -45 -45c-23 -27 -25 -57 -8 -89c-17 -9 -25 0 -31 12c-11 24 -9 47 4 70c20 35 51 60 84 82c77 52 160 98 226 166c5 5 11 11 17 12c17 3 31 -3 24 -21c-85 -174 -153 -358 -246 -529c-31 -58 -103 -177 -169 -186
c-26 -4 -47 6 -46 39c1 16 12 12 18 10c13 -34 37 -28 62 -6c48 44 73 101 99 156l58 124l156 337c3 5 5 10 9 19zM392 678c-15 -16 -28 -31 -41 -46s-38 -15 -18 10c15 19 30 39 46 56c12 13 28 10 36 -5c10 -19 27 -39 35 -58c6 -28 -19 -20 -23 -14c-14 19 -26 38 -35 57
z" />
    <glyph glyph-name="Idieresis" unicode="&#xcf;" horiz-adv-x="391" 
d="M402 510c-73 -59 -143 -101 -212 -151c-17 -13 -31 -29 -45 -45c-23 -27 -25 -57 -8 -89c-17 -9 -25 0 -31 12c-11 24 -9 47 4 70c20 35 51 60 84 82c77 52 160 98 226 166c5 5 11 11 17 12c17 3 31 -3 24 -21c-85 -174 -153 -358 -246 -529c-31 -58 -103 -177 -169 -186
c-26 -4 -47 6 -46 39c1 16 12 12 18 10c13 -34 37 -28 62 -6c48 44 73 101 99 156l58 124l156 337c3 5 5 10 9 19zM349 646c9 16 11 29 31 36c16 2 17 -10 13 -21c-4 -8 -9 -16 -16 -23c-9 -12 -37 -11 -28 8zM415 646c9 16 11 29 31 36c16 2 17 -10 13 -21
c-4 -8 -9 -16 -16 -23c-9 -12 -37 -11 -28 8z" />
    <glyph glyph-name="Ntilde" unicode="&#xd1;" horiz-adv-x="646" 
d="M275 436c-55 -46 -114 -83 -170 -125c-34 -24 -59 -54 -73 -94c-7 -22 -10 -45 5 -66c-12 -11 -20 -5 -27 5c-13 18 -11 39 -6 60c9 38 32 69 63 93c82 63 168 113 235 190l13 14c18 15 43 5 33 -19c-63 -140 -138 -266 -194 -400c93 142 185 285 303 401
c57 56 102 100 175 121c34 8 89 -10 86 -50c-8 -126 -95 -229 -153 -343c-63 -112 -129 -235 -111 -323c3 -13 12 -26 28 -43c-114 -10 -56 220 -11 295c76 167 187 294 205 409c7 45 -49 25 -80 11c-73 -33 -163 -143 -209 -197c-126 -146 -226 -311 -320 -479
c-22 1 -27 20 -19 48c39 140 156 327 227 492zM459 657c3 5 7 10 11 14c16 16 40 23 61 20c27 -4 42 -30 71 -23c13 3 25 14 32 21c16 3 23 -8 7 -22c-13 -11 -22 -16 -39 -19c-35 -5 -44 12 -69 20c-12 4 -28 4 -45 -9c-9 -6 -29 -18 -29 -2z" />
    <glyph glyph-name="Oacute" unicode="&#xd3;" horiz-adv-x="481" 
d="M481 181l16 -6c-48 -88 -91 -121 -173 -128c-27 -52 -65 -115 -112 -153c-29 -24 -61 -44 -100 -47c-44 -2 -75 17 -92 58c-40 101 -13 194 21 282c-39 95 -27 190 36 270c46 61 128 86 197 63c68 -22 120 -90 124 -165c6 -89 -17 -171 -48 -252c-5 -11 -9 -22 -15 -37
c81 5 128 80 146 115zM76 193c45 -77 129 -123 211 -126c28 73 47 143 54 218c4 51 0 99 -23 145c-27 54 -62 83 -118 77c-38 -4 -68 -24 -93 -52c-34 -39 -51 -86 -55 -137c-1 -14 -1 -65 9 -85l10 16c22 36 96 140 146 104c-55 -33 -116 -90 -141 -160zM60 158
c-25 -76 -43 -149 -23 -226c18 -70 46 -87 108 -50c65 38 100 96 133 164c-94 1 -155 38 -218 112zM193 627c30 30 55 52 78 70c12 6 42 -3 19 -23l-72 -57c-14 -10 -51 -10 -25 10z" />
    <glyph glyph-name="Ograve" unicode="&#xd2;" horiz-adv-x="481" 
d="M481 181l16 -6c-48 -88 -91 -121 -173 -128c-27 -52 -65 -115 -112 -153c-29 -24 -61 -44 -100 -47c-44 -2 -75 17 -92 58c-40 101 -13 194 21 282c-39 95 -27 190 36 270c46 61 128 86 197 63c68 -22 120 -90 124 -165c6 -89 -17 -171 -48 -252c-5 -11 -9 -22 -15 -37
c81 5 128 80 146 115zM76 193c45 -77 129 -123 211 -126c28 73 47 143 54 218c4 51 0 99 -23 145c-27 54 -62 83 -118 77c-38 -4 -68 -24 -93 -52c-34 -39 -51 -86 -55 -137c-1 -14 -1 -65 9 -85l10 16c22 36 96 140 146 104c-55 -33 -116 -90 -141 -160zM60 158
c-25 -76 -43 -149 -23 -226c18 -70 46 -87 108 -50c65 38 100 96 133 164c-94 1 -155 38 -218 112zM239 624c-18 20 -35 40 -52 60c-13 20 17 22 27 12c20 -20 38 -42 56 -63c3 -3 6 -10 4 -12c-8 -15 -27 -5 -35 3z" />
    <glyph glyph-name="Ocircumflex" unicode="&#xd4;" horiz-adv-x="481" 
d="M481 181l16 -6c-48 -88 -91 -121 -173 -128c-27 -52 -65 -115 -112 -153c-29 -24 -61 -44 -100 -47c-44 -2 -75 17 -92 58c-40 101 -13 194 21 282c-39 95 -27 190 36 270c46 61 128 86 197 63c68 -22 120 -90 124 -165c6 -89 -17 -171 -48 -252c-5 -11 -9 -22 -15 -37
c81 5 128 80 146 115zM76 193c45 -77 129 -123 211 -126c28 73 47 143 54 218c4 51 0 99 -23 145c-27 54 -62 83 -118 77c-38 -4 -68 -24 -93 -52c-34 -39 -51 -86 -55 -137c-1 -14 -1 -65 9 -85l10 16c22 36 96 140 146 104c-55 -33 -116 -90 -141 -160zM60 158
c-25 -76 -43 -149 -23 -226c18 -70 46 -87 108 -50c65 38 100 96 133 164c-94 1 -155 38 -218 112zM236 684c-15 -16 -28 -31 -41 -46s-38 -15 -18 10c15 19 30 39 46 56c12 13 28 10 36 -5c10 -19 27 -39 35 -58c6 -28 -19 -20 -23 -14c-14 19 -26 38 -35 57z" />
    <glyph glyph-name="Otilde" unicode="&#xd5;" horiz-adv-x="481" 
d="M481 181l16 -6c-48 -88 -91 -121 -173 -128c-27 -52 -65 -115 -112 -153c-29 -24 -61 -44 -100 -47c-44 -2 -75 17 -92 58c-40 101 -13 194 21 282c-39 95 -27 190 36 270c46 61 128 86 197 63c68 -22 120 -90 124 -165c6 -89 -17 -171 -48 -252c-5 -11 -9 -22 -15 -37
c81 5 128 80 146 115zM76 193c45 -77 129 -123 211 -126c28 73 47 143 54 218c4 51 0 99 -23 145c-27 54 -62 83 -118 77c-38 -4 -68 -24 -93 -52c-34 -39 -51 -86 -55 -137c-1 -14 -1 -65 9 -85l10 16c22 36 96 140 146 104c-55 -33 -116 -90 -141 -160zM60 158
c-25 -76 -43 -149 -23 -226c18 -70 46 -87 108 -50c65 38 100 96 133 164c-94 1 -155 38 -218 112zM141 626c3 5 7 10 11 14c16 16 40 23 61 20c27 -4 42 -30 71 -23c13 3 25 14 32 21c16 3 23 -8 7 -22c-13 -11 -22 -16 -39 -19c-35 -5 -44 12 -69 20c-12 4 -28 4 -45 -9
c-9 -6 -29 -18 -29 -2z" />
    <glyph glyph-name="Odieresis" unicode="&#xd6;" horiz-adv-x="481" 
d="M481 181l16 -6c-48 -88 -91 -121 -173 -128c-27 -52 -65 -115 -112 -153c-29 -24 -61 -44 -100 -47c-44 -2 -75 17 -92 58c-40 101 -13 194 21 282c-39 95 -27 190 36 270c46 61 128 86 197 63c68 -22 120 -90 124 -165c6 -89 -17 -171 -48 -252c-5 -11 -9 -22 -15 -37
c81 5 128 80 146 115zM76 193c45 -77 129 -123 211 -126c28 73 47 143 54 218c4 51 0 99 -23 145c-27 54 -62 83 -118 77c-38 -4 -68 -24 -93 -52c-34 -39 -51 -86 -55 -137c-1 -14 -1 -65 9 -85l10 16c22 36 96 140 146 104c-55 -33 -116 -90 -141 -160zM60 158
c-25 -76 -43 -149 -23 -226c18 -70 46 -87 108 -50c65 38 100 96 133 164c-94 1 -155 38 -218 112zM254 613c9 16 11 29 31 36c16 2 17 -10 13 -21c-4 -8 -9 -16 -16 -23c-9 -12 -37 -11 -28 8zM188 613c9 16 11 29 31 36c16 2 17 -10 13 -21c-4 -8 -9 -16 -16 -23
c-9 -12 -37 -11 -28 8z" />
    <glyph glyph-name="multiply" unicode="&#xd7;" horiz-adv-x="406" 
d="M241 154l69 -47c17 -12 -10 -20 -19 -17c-24 14 -45 31 -76 46c-33 -25 -48 -33 -80 -56c-7 -4 -12 -9 -16 -8c-16 2 -29 13 -14 23c39 31 51 37 86 61c-22 17 -45 27 -64 43c-33 28 -2 27 17 16c16 -8 52 -32 67 -43c24 15 52 34 77 46c20 13 46 3 29 -14
c-26 -21 -52 -34 -76 -50z" />
    <glyph glyph-name="Oslash" unicode="&#xd8;" horiz-adv-x="481" 
d="M456 530c-27 -34 -54 -66 -79 -100c12 -23 19 -49 21 -75c6 -89 -17 -171 -48 -252c-5 -11 -9 -22 -15 -37c81 5 128 80 146 115l16 -6c-48 -88 -91 -121 -173 -128c-27 -52 -65 -115 -112 -153c-29 -24 -61 -44 -100 -47c-44 -2 -75 17 -92 58c-6 15 -10 29 -13 43
l-44 -58c-8 -10 -17 -16 -32 -6l15 25l55 74c-6 71 15 139 40 204c-39 95 -27 190 36 270c46 61 128 86 197 63c35 -12 66 -35 88 -66l49 59c10 12 21 28 45 17zM76 193c11 -20 26 -38 42 -54l11 14c56 73 110 146 167 218c10 13 20 26 31 39l-9 20c-27 54 -62 83 -118 77
c-38 -4 -68 -24 -93 -52c-34 -39 -51 -86 -55 -137c-1 -14 -1 -65 9 -85l10 16c22 36 96 140 146 104c-55 -33 -116 -90 -141 -160zM37 -68c18 -70 46 -87 108 -50c65 38 100 96 133 164c-64 0 -112 18 -157 52c-6 -8 -11 -16 -17 -23l-75 -97c1 -15 4 -30 8 -46zM287 67
c28 73 47 143 54 218c2 32 2 62 -5 92l-197 -256c43 -33 96 -52 148 -54zM60 158c-16 -47 -28 -93 -31 -139l71 96c-13 13 -27 27 -40 43z" />
    <glyph glyph-name="Ugrave" unicode="&#xd9;" horiz-adv-x="683" 
d="M572 -161c-5 -14 -14 -18 -27 -10c-22 14 -41 31 -47 59c-13 56 -5 111 12 164c14 42 48 143 70 191c-104 -135 -171 -302 -335 -357c-39 -4 -67 18 -73 58c-6 33 -1 65 7 98c24 103 69 198 115 292c30 62 62 124 90 187c-23 -16 -46 -33 -70 -48
c-59 -38 -120 -73 -177 -114c-30 -21 -56 -49 -79 -78c-31 -37 -38 -80 -18 -126c-12 -11 -20 -4 -27 6c-16 25 -15 51 -9 77c14 52 50 89 90 120c38 29 79 54 119 79c68 42 138 82 194 140c11 11 26 12 39 4s8 -21 3 -31c-33 -74 -65 -149 -102 -221
c-47 -94 -94 -187 -127 -286c-9 -31 -14 -64 -16 -96c-2 -40 22 -55 61 -42c152 87 230 255 324 395l167 265c6 11 13 21 21 30c10 11 23 14 33 4c4 -3 2 -17 -1 -24c-70 -145 -142 -289 -211 -434c-31 -65 -54 -133 -63 -204c-1 -13 -2 -26 -2 -39c1 -28 7 -52 39 -59z
M550 629c-18 20 -35 40 -52 60c-13 20 17 22 27 12c20 -20 38 -42 56 -63c3 -3 6 -10 4 -12c-8 -15 -27 -5 -35 3z" />
    <glyph glyph-name="Uacute" unicode="&#xda;" horiz-adv-x="683" 
d="M572 -161c-5 -14 -14 -18 -27 -10c-22 14 -41 31 -47 59c-13 56 -5 111 12 164c14 42 48 143 70 191c-104 -135 -171 -302 -335 -357c-39 -4 -67 18 -73 58c-6 33 -1 65 7 98c24 103 69 198 115 292c30 62 62 124 90 187c-23 -16 -46 -33 -70 -48
c-59 -38 -120 -73 -177 -114c-30 -21 -56 -49 -79 -78c-31 -37 -38 -80 -18 -126c-12 -11 -20 -4 -27 6c-16 25 -15 51 -9 77c14 52 50 89 90 120c38 29 79 54 119 79c68 42 138 82 194 140c11 11 26 12 39 4s8 -21 3 -31c-33 -74 -65 -149 -102 -221
c-47 -94 -94 -187 -127 -286c-9 -31 -14 -64 -16 -96c-2 -40 22 -55 61 -42c152 87 230 255 324 395l167 265c6 11 13 21 21 30c10 11 23 14 33 4c4 -3 2 -17 -1 -24c-70 -145 -142 -289 -211 -434c-31 -65 -54 -133 -63 -204c-1 -13 -2 -26 -2 -39c1 -28 7 -52 39 -59z
M554 643c30 30 55 52 78 70c12 6 42 -3 19 -23l-72 -57c-14 -10 -51 -10 -25 10z" />
    <glyph glyph-name="Ucircumflex" unicode="&#xdb;" horiz-adv-x="683" 
d="M572 -161c-5 -14 -14 -18 -27 -10c-22 14 -41 31 -47 59c-13 56 -5 111 12 164c14 42 48 143 70 191c-104 -135 -171 -302 -335 -357c-39 -4 -67 18 -73 58c-6 33 -1 65 7 98c24 103 69 198 115 292c30 62 62 124 90 187c-23 -16 -46 -33 -70 -48
c-59 -38 -120 -73 -177 -114c-30 -21 -56 -49 -79 -78c-31 -37 -38 -80 -18 -126c-12 -11 -20 -4 -27 6c-16 25 -15 51 -9 77c14 52 50 89 90 120c38 29 79 54 119 79c68 42 138 82 194 140c11 11 26 12 39 4s8 -21 3 -31c-33 -74 -65 -149 -102 -221
c-47 -94 -94 -187 -127 -286c-9 -31 -14 -64 -16 -96c-2 -40 22 -55 61 -42c152 87 230 255 324 395l167 265c6 11 13 21 21 30c10 11 23 14 33 4c4 -3 2 -17 -1 -24c-70 -145 -142 -289 -211 -434c-31 -65 -54 -133 -63 -204c-1 -13 -2 -26 -2 -39c1 -28 7 -52 39 -59z
M593 696c-15 -16 -28 -31 -41 -46s-38 -15 -18 10c15 19 30 39 46 56c12 13 28 10 36 -5c10 -19 27 -39 35 -58c6 -28 -19 -20 -23 -14c-14 19 -26 38 -35 57z" />
    <glyph glyph-name="Udieresis" unicode="&#xdc;" horiz-adv-x="683" 
d="M572 -161c-5 -14 -14 -18 -27 -10c-22 14 -41 31 -47 59c-13 56 -5 111 12 164c14 42 48 143 70 191c-104 -135 -171 -302 -335 -357c-39 -4 -67 18 -73 58c-6 33 -1 65 7 98c24 103 69 198 115 292c30 62 62 124 90 187c-23 -16 -46 -33 -70 -48
c-59 -38 -120 -73 -177 -114c-30 -21 -56 -49 -79 -78c-31 -37 -38 -80 -18 -126c-12 -11 -20 -4 -27 6c-16 25 -15 51 -9 77c14 52 50 89 90 120c38 29 79 54 119 79c68 42 138 82 194 140c11 11 26 12 39 4s8 -21 3 -31c-33 -74 -65 -149 -102 -221
c-47 -94 -94 -187 -127 -286c-9 -31 -14 -64 -16 -96c-2 -40 22 -55 61 -42c152 87 230 255 324 395l167 265c6 11 13 21 21 30c10 11 23 14 33 4c4 -3 2 -17 -1 -24c-70 -145 -142 -289 -211 -434c-31 -65 -54 -133 -63 -204c-1 -13 -2 -26 -2 -39c1 -28 7 -52 39 -59z
M543 668c9 16 11 29 31 36c16 2 17 -10 13 -21c-4 -8 -9 -16 -16 -23c-9 -12 -37 -11 -28 8zM609 668c9 16 11 29 31 36c16 2 17 -10 13 -21c-4 -8 -9 -16 -16 -23c-9 -12 -37 -11 -28 8z" />
    <glyph glyph-name="Yacute" unicode="&#xdd;" horiz-adv-x="710" 
d="M62 -255c-62 22 -72 94 -54 134c26 57 74 84 133 93c97 9 172 -37 254 -69c104 120 168 270 238 413c-70 -88 -157 -237 -275 -250c-41 -1 -69 20 -78 60c-8 28 -7 58 3 85c16 44 32 88 53 129c23 47 88 146 94 180c-27 -20 -53 -40 -79 -61c-55 -44 -110 -88 -164 -133
c-37 -33 -70 -70 -91 -116c-8 -18 -11 -35 2 -51c-15 -8 -25 -4 -32 10c-8 17 -4 33 2 50c18 43 48 79 83 109c63 51 128 99 191 150c42 34 84 70 126 105c4 3 9 8 13 8c17 0 32 -7 22 -24c-20 -41 -42 -81 -62 -122c-38 -74 -76 -149 -112 -225c-14 -31 -21 -66 -13 -102
c7 -31 30 -44 60 -32c123 54 241 248 308 348c32 48 60 98 91 146c13 22 37 66 65 45l-27 -51c-61 -124 -121 -249 -183 -373c-44 -87 -87 -173 -146 -251c-17 -22 -36 -42 -55 -66c75 -40 153 -73 239 -68c53 3 100 73 87 95c9 9 26 0 26 -17c2 -42 -45 -87 -94 -99
c-47 -10 -93 -6 -145 9c-38 10 -101 41 -136 58c-60 -42 -119 -90 -190 -112c-53 -18 -102 -23 -154 -5zM372 -120c-64 33 -123 63 -191 69c-54 4 -98 -16 -130 -58c-24 -31 -26 -66 -7 -100c19 -32 52 -40 86 -37c96 9 167 66 242 126zM605 651c30 30 55 52 78 70
c12 6 42 -3 19 -23l-72 -57c-14 -10 -51 -10 -25 10z" />
    <glyph glyph-name="agrave" unicode="&#xe0;" 
d="M277 181l15 -8c-57 -100 -95 -153 -153 -221c-40 -47 -98 -42 -102 24c0 26 1 44 14 84l17 47c-22 -24 -45 -51 -70 -68c-19 -12 -56 -23 -56 12c-2 53 40 119 82 153c7 5 14 10 22 14c29 15 51 11 73 -15c6 9 11 18 19 26c5 6 14 11 22 12c18 3 27 -6 18 -23l-61 -119
c-24 -45 -32 -71 -39 -101c-7 -48 5 -81 45 -37c80 88 104 131 154 220zM106 185c-10 11 -16 30 -50 5c-30 -24 -69 -74 -78 -119c-3 -14 0 -20 3 -21c25 -8 100 109 125 135zM142 295c-18 20 -35 40 -52 60c-13 20 17 22 27 12c20 -20 38 -42 56 -63c3 -3 6 -10 4 -12
c-8 -15 -27 -5 -35 3z" />
    <glyph glyph-name="aacute" unicode="&#xe1;" 
d="M277 181l15 -8c-57 -100 -95 -153 -153 -221c-40 -47 -98 -42 -102 24c0 26 1 44 14 84l17 47c-22 -24 -45 -51 -70 -68c-19 -12 -56 -23 -56 12c-2 53 40 119 82 153c7 5 14 10 22 14c29 15 51 11 73 -15c6 9 11 18 19 26c5 6 14 11 22 12c18 3 27 -6 18 -23l-61 -119
c-24 -45 -32 -71 -39 -101c-7 -48 5 -81 45 -37c80 88 104 131 154 220zM106 185c-10 11 -16 30 -50 5c-30 -24 -69 -74 -78 -119c-3 -14 0 -20 3 -21c25 -8 100 109 125 135zM91 295c30 30 55 52 78 70c12 6 42 -3 19 -23l-72 -57c-14 -10 -51 -10 -25 10z" />
    <glyph glyph-name="acircumflex" unicode="&#xe2;" 
d="M277 181l15 -8c-57 -100 -95 -153 -153 -221c-40 -47 -98 -42 -102 24c0 26 1 44 14 84l17 47c-22 -24 -45 -51 -70 -68c-19 -12 -56 -23 -56 12c-2 53 40 119 82 153c7 5 14 10 22 14c29 15 51 11 73 -15c6 9 11 18 19 26c5 6 14 11 22 12c18 3 27 -6 18 -23l-61 -119
c-24 -45 -32 -71 -39 -101c-7 -48 5 -81 45 -37c80 88 104 131 154 220zM106 185c-10 11 -16 30 -50 5c-30 -24 -69 -74 -78 -119c-3 -14 0 -20 3 -21c25 -8 100 109 125 135zM146 341c-15 -16 -28 -31 -41 -46s-38 -15 -18 10c15 19 30 39 46 56c12 13 28 10 36 -5
c10 -19 27 -39 35 -58c6 -28 -19 -20 -23 -14c-14 19 -26 38 -35 57z" />
    <glyph glyph-name="atilde" unicode="&#xe3;" 
d="M277 181l15 -8c-57 -100 -95 -153 -153 -221c-40 -47 -98 -42 -102 24c0 26 1 44 14 84l17 47c-22 -24 -45 -51 -70 -68c-19 -12 -56 -23 -56 12c-2 53 40 119 82 153c7 5 14 10 22 14c29 15 51 11 73 -15c6 9 11 18 19 26c5 6 14 11 22 12c18 3 27 -6 18 -23l-61 -119
c-24 -45 -32 -71 -39 -101c-7 -48 5 -81 45 -37c80 88 104 131 154 220zM106 185c-10 11 -16 30 -50 5c-30 -24 -69 -74 -78 -119c-3 -14 0 -20 3 -21c25 -8 100 109 125 135zM39 294c3 5 7 10 11 14c16 16 40 23 61 20c27 -4 42 -30 71 -23c13 3 25 14 32 21
c16 3 23 -8 7 -22c-13 -11 -22 -16 -39 -19c-35 -5 -44 12 -69 20c-12 4 -28 4 -45 -9c-9 -6 -29 -18 -29 -2z" />
    <glyph glyph-name="adieresis" unicode="&#xe4;" 
d="M277 181l15 -8c-57 -100 -95 -153 -153 -221c-40 -47 -98 -42 -102 24c0 26 1 44 14 84l17 47c-22 -24 -45 -51 -70 -68c-19 -12 -56 -23 -56 12c-2 53 40 119 82 153c7 5 14 10 22 14c29 15 51 11 73 -15c6 9 11 18 19 26c5 6 14 11 22 12c18 3 27 -6 18 -23l-61 -119
c-24 -45 -32 -71 -39 -101c-7 -48 5 -81 45 -37c80 88 104 131 154 220zM106 185c-10 11 -16 30 -50 5c-30 -24 -69 -74 -78 -119c-3 -14 0 -20 3 -21c25 -8 100 109 125 135zM130 301c9 16 11 29 31 36c16 2 17 -10 13 -21c-4 -8 -9 -16 -16 -23c-9 -12 -37 -11 -28 8z
M64 301c9 16 11 29 31 36c16 2 17 -10 13 -21c-4 -8 -9 -16 -16 -23c-9 -12 -37 -11 -28 8z" />
    <glyph glyph-name="aring" unicode="&#xe5;" 
d="M277 181l15 -8c-57 -100 -95 -153 -153 -221c-40 -47 -98 -42 -102 24c0 26 1 44 14 84l17 47c-22 -24 -45 -51 -70 -68c-19 -12 -56 -23 -56 12c-2 53 40 119 82 153c7 5 14 10 22 14c4 2 8 4 12 5c-15 6 -24 19 -23 38c1 35 30 71 55 70c33 -1 60 -23 59 -49
c-1 -27 -25 -52 -53 -60c8 -4 15 -10 23 -19c6 9 11 18 19 26c5 6 14 11 22 12c18 3 27 -6 18 -23l-61 -119c-24 -45 -32 -71 -39 -101c-7 -48 5 -81 45 -37c80 88 104 131 154 220zM106 185c-10 11 -16 30 -50 5c-30 -24 -69 -74 -78 -119c-3 -14 0 -20 3 -21
c25 -8 100 109 125 135zM116 283c-1 2 -2 10 -5 16c-9 17 -20 17 -30 0c-7 -13 -12 -29 -15 -44c-3 -16 7 -23 22 -18s28 25 28 46z" />
    <glyph glyph-name="ccedilla" unicode="&#xe7;" horiz-adv-x="212" 
d="M118 26l-31 -68c36 -6 45 -22 31 -58c-13 -31 -39 -48 -67 -43c-12 3 -21 9 -22 22c2 12 16 22 22 7c11 -16 18 -19 29 -3c10 13 17 29 21 44c3 9 -2 17 -15 16c-3 -1 -7 -1 -10 -1c-15 1 -18 5 -13 18c6 16 13 31 21 46c-5 -2 -10 -4 -15 -5c-15 -4 -31 -4 -48 2
c-30 10 -46 32 -48 64c-4 62 18 116 66 159c22 20 49 29 77 26c10 -1 31 -7 26 -18c-28 1 -47 -8 -64 -23c-42 -39 -65 -85 -67 -141c0 -11 2 -22 7 -32c10 -23 26 -23 44 -18c56 15 103 75 150 161l15 -8c-34 -67 -69 -118 -109 -147z" />
    <glyph glyph-name="egrave" unicode="&#xe8;" horiz-adv-x="177" 
d="M177 181l15 -8c-18 -36 -89 -167 -158 -173c-11 -1 -22 0 -31 5c-32 15 -46 46 -40 85c9 56 40 102 79 142c27 27 75 25 72 -23c-4 -58 -57 -84 -106 -99c-8 -22 -7 -46 -4 -69c5 -20 16 -24 29 -23c55 3 123 121 144 163zM11 125c34 9 72 44 79 77c5 24 -7 34 -23 16
c-18 -21 -41 -49 -56 -93zM73 287c-18 20 -35 40 -52 60c-13 20 17 22 27 12c20 -20 38 -42 56 -63c3 -3 6 -10 4 -12c-8 -15 -27 -5 -35 3z" />
    <glyph glyph-name="eacute" unicode="&#xe9;" horiz-adv-x="177" 
d="M177 181l15 -8c-18 -36 -89 -167 -158 -173c-11 -1 -22 0 -31 5c-32 15 -46 46 -40 85c9 56 40 102 79 142c27 27 75 25 72 -23c-4 -58 -57 -84 -106 -99c-8 -22 -7 -46 -4 -69c5 -20 16 -24 29 -23c55 3 123 121 144 163zM41 296c30 30 55 52 78 70c12 6 42 -3 19 -23
l-72 -57c-14 -10 -51 -10 -25 10zM11 125c34 9 72 44 79 77c5 24 -7 34 -23 16c-18 -21 -41 -49 -56 -93z" />
    <glyph glyph-name="ecircumflex" unicode="&#xea;" horiz-adv-x="177" 
d="M177 181l15 -8c-18 -36 -89 -167 -158 -173c-11 -1 -22 0 -31 5c-32 15 -46 46 -40 85c9 56 40 102 79 142c27 27 75 25 72 -23c-4 -58 -57 -84 -106 -99c-8 -22 -7 -46 -4 -69c5 -20 16 -24 29 -23c55 3 123 121 144 163zM11 125c34 9 72 44 79 77c5 24 -7 34 -23 16
c-18 -21 -41 -49 -56 -93zM96 339c-15 -16 -28 -31 -41 -46s-38 -15 -18 10c15 19 30 39 46 56c12 13 28 10 36 -5c10 -19 27 -39 35 -58c6 -28 -19 -20 -23 -14c-14 19 -26 38 -35 57z" />
    <glyph glyph-name="edieresis" unicode="&#xeb;" horiz-adv-x="177" 
d="M177 181l15 -8c-18 -36 -89 -167 -158 -173c-11 -1 -22 0 -31 5c-32 15 -46 46 -40 85c9 56 40 102 79 142c27 27 75 25 72 -23c-4 -58 -57 -84 -106 -99c-8 -22 -7 -46 -4 -69c5 -20 16 -24 29 -23c55 3 123 121 144 163zM11 125c34 9 72 44 79 77c5 24 -7 34 -23 16
c-18 -21 -41 -49 -56 -93zM102 301c9 16 11 29 31 36c16 2 17 -10 13 -21c-4 -8 -9 -16 -16 -23c-9 -12 -37 -11 -28 8zM36 301c9 16 11 29 31 36c16 2 17 -10 13 -21c-4 -8 -9 -16 -16 -23c-9 -12 -37 -11 -28 8z" />
    <glyph glyph-name="dotlessi" unicode="&#x131;" horiz-adv-x="180" 
d="M180 181l15 -8c-31 -64 -79 -144 -113 -172c-35 -29 -71 -28 -92 5c-26 37 -22 89 -9 127c10 33 27 63 42 94c3 6 7 14 14 18c6 3 15 5 21 2c4 -1 7 -13 5 -18c-12 -31 -27 -61 -36 -92c-12 -36 -39 -199 43 -123c50 46 109 165 110 167z" />
    <glyph glyph-name="igrave" unicode="&#xec;" horiz-adv-x="180" 
d="M180 181l15 -8c-31 -64 -79 -144 -113 -172c-35 -29 -71 -28 -92 5c-26 37 -22 89 -9 127c10 33 27 63 42 94c3 6 7 14 14 18c6 3 15 5 21 2c4 -1 7 -13 5 -18c-12 -31 -27 -61 -36 -92c-12 -36 -39 -199 43 -123c50 46 109 165 110 167zM82 293c-18 20 -35 40 -52 60
c-13 20 17 22 27 12c20 -20 38 -42 56 -63c3 -3 6 -10 4 -12c-8 -15 -27 -5 -35 3z" />
    <glyph glyph-name="iacute" unicode="&#xed;" horiz-adv-x="180" 
d="M180 181l15 -8c-31 -64 -79 -144 -113 -172c-35 -29 -71 -28 -92 5c-26 37 -22 89 -9 127c10 33 27 63 42 94c3 6 7 14 14 18c6 3 15 5 21 2c4 -1 7 -13 5 -18c-12 -31 -27 -61 -36 -92c-12 -36 -39 -199 43 -123c50 46 109 165 110 167zM51 295c30 30 55 52 78 70
c12 6 42 -3 19 -23l-72 -57c-14 -10 -51 -10 -25 10z" />
    <glyph glyph-name="icircumflex" unicode="&#xee;" horiz-adv-x="180" 
d="M180 181l15 -8c-31 -64 -79 -144 -113 -172c-35 -29 -71 -28 -92 5c-26 37 -22 89 -9 127c10 33 27 63 42 94c3 6 7 14 14 18c6 3 15 5 21 2c4 -1 7 -13 5 -18c-12 -31 -27 -61 -36 -92c-12 -36 -39 -199 43 -123c50 46 109 165 110 167zM74 345c-15 -16 -28 -31 -41 -46
s-38 -15 -18 10c15 19 30 39 46 56c12 13 28 10 36 -5c10 -19 27 -39 35 -58c6 -28 -19 -20 -23 -14c-14 19 -26 38 -35 57z" />
    <glyph glyph-name="idieresis" unicode="&#xef;" horiz-adv-x="180" 
d="M180 181l15 -8c-31 -64 -79 -144 -113 -172c-35 -29 -71 -28 -92 5c-26 37 -22 89 -9 127c10 33 27 63 42 94c3 6 7 14 14 18c6 3 15 5 21 2c4 -1 7 -13 5 -18c-12 -31 -27 -61 -36 -92c-12 -36 -39 -199 43 -123c50 46 109 165 110 167zM87 300c9 16 11 29 31 36
c16 2 17 -10 13 -21c-4 -8 -9 -16 -16 -23c-9 -12 -37 -11 -28 8zM21 300c9 16 11 29 31 36c16 2 17 -10 13 -21c-4 -8 -9 -16 -16 -23c-9 -12 -37 -11 -28 8z" />
    <glyph glyph-name="ntilde" unicode="&#xf1;" horiz-adv-x="367" 
d="M148 25c-12 -34 -27 -113 30 -93c62 22 167 214 189 249l14 -10c-41 -71 -144 -265 -223 -256c-68 7 -66 100 -48 144c24 56 74 128 62 135c-55 -32 -126 -122 -171 -167c-6 -7 -13 -12 -21 -15c-17 -8 -35 5 -30 23c14 47 30 94 46 141c4 10 11 17 24 13s14 -15 11 -27
c-4 -12 -39 -96 -33 -102c36 40 152 168 206 153c49 -32 -33 -120 -56 -188zM34 266c3 5 7 10 11 14c16 16 40 23 61 20c27 -4 42 -30 71 -23c13 3 25 14 32 21c16 3 23 -8 7 -22c-13 -11 -22 -16 -39 -19c-35 -5 -44 12 -69 20c-12 4 -28 4 -45 -9c-9 -6 -29 -18 -29 -2z
" />
    <glyph glyph-name="ograve" unicode="&#xf2;" horiz-adv-x="198" 
d="M198 181l15 -8c-30 -54 -79 -130 -136 -113c-12 -26 -45 -77 -79 -65c-30 11 -46 70 -33 107c7 21 23 46 35 60c-1 8 0 16 0 23c1 25 12 51 23 70c56 91 117 18 101 -63c-8 -43 -27 -90 -40 -116c45 -18 101 82 114 105zM68 86c18 36 30 76 39 114c8 44 -10 116 -61 47
c-41 -61 -32 -133 22 -161zM11 9c18 9 39 33 49 59c-20 9 -34 25 -44 42c-24 -21 -29 -90 -5 -101zM105 310c-18 20 -35 40 -52 60c-13 20 17 22 27 12c20 -20 38 -42 56 -63c3 -3 6 -10 4 -12c-8 -15 -27 -5 -35 3z" />
    <glyph glyph-name="oacute" unicode="&#xf3;" horiz-adv-x="198" 
d="M198 181l15 -8c-30 -54 -79 -130 -136 -113c-12 -26 -45 -77 -79 -65c-30 11 -46 70 -33 107c7 21 23 46 35 60c-1 8 0 16 0 23c1 25 12 51 23 70c56 91 117 18 101 -63c-8 -43 -27 -90 -40 -116c45 -18 101 82 114 105zM68 86c18 36 30 76 39 114c8 44 -10 116 -61 47
c-41 -61 -32 -133 22 -161zM11 9c18 9 39 33 49 59c-20 9 -34 25 -44 42c-24 -21 -29 -90 -5 -101zM35 333c30 30 55 52 78 70c12 6 42 -3 19 -23l-72 -57c-14 -10 -51 -10 -25 10z" />
    <glyph glyph-name="ocircumflex" unicode="&#xf4;" horiz-adv-x="198" 
d="M198 181l15 -8c-30 -54 -79 -130 -136 -113c-12 -26 -45 -77 -79 -65c-30 11 -46 70 -33 107c7 21 23 46 35 60c-1 8 0 16 0 23c1 25 12 51 23 70c56 91 117 18 101 -63c-8 -43 -27 -90 -40 -116c45 -18 101 82 114 105zM68 86c18 36 30 76 39 114c8 44 -10 116 -61 47
c-41 -61 -32 -133 22 -161zM11 9c18 9 39 33 49 59c-20 9 -34 25 -44 42c-24 -21 -29 -90 -5 -101zM83 362c-15 -16 -28 -31 -41 -46s-38 -15 -18 10c15 19 30 39 46 56c12 13 28 10 36 -5c10 -19 27 -39 35 -58c6 -28 -19 -20 -23 -14c-14 19 -26 38 -35 57z" />
    <glyph glyph-name="otilde" unicode="&#xf5;" horiz-adv-x="198" 
d="M198 181l15 -8c-30 -54 -79 -130 -136 -113c-12 -26 -45 -77 -79 -65c-30 11 -46 70 -33 107c7 21 23 46 35 60c-1 8 0 16 0 23c1 25 12 51 23 70c56 91 117 18 101 -63c-8 -43 -27 -90 -40 -116c45 -18 101 82 114 105zM68 86c18 36 30 76 39 114c8 44 -10 116 -61 47
c-41 -61 -32 -133 22 -161zM11 9c18 9 39 33 49 59c-20 9 -34 25 -44 42c-24 -21 -29 -90 -5 -101zM0 331c3 5 7 10 11 14c16 16 40 23 61 20c27 -4 42 -30 71 -23c13 3 25 14 32 21c16 3 23 -8 7 -22c-13 -11 -22 -16 -39 -19c-35 -5 -44 12 -69 20c-12 4 -28 4 -45 -9
c-9 -6 -29 -18 -29 -2z" />
    <glyph glyph-name="odieresis" unicode="&#xf6;" horiz-adv-x="198" 
d="M198 181l15 -8c-30 -54 -79 -130 -136 -113c-12 -26 -45 -77 -79 -65c-30 11 -46 70 -33 107c7 21 23 46 35 60c-1 8 0 16 0 23c1 25 12 51 23 70c56 91 117 18 101 -63c-8 -43 -27 -90 -40 -116c45 -18 101 82 114 105zM68 86c18 36 30 76 39 114c8 44 -10 116 -61 47
c-41 -61 -32 -133 22 -161zM11 9c18 9 39 33 49 59c-20 9 -34 25 -44 42c-24 -21 -29 -90 -5 -101zM97 344c9 16 11 29 31 36c16 2 17 -10 13 -21c-4 -8 -9 -16 -16 -23c-9 -12 -37 -11 -28 8zM31 344c9 16 11 29 31 36c16 2 17 -10 13 -21c-4 -8 -9 -16 -16 -23
c-9 -12 -37 -11 -28 8z" />
    <glyph glyph-name="oslash" unicode="&#xf8;" horiz-adv-x="198" 
d="M303 427c-22 -29 -44 -56 -64 -85l-117 -160c-9 -40 -26 -82 -38 -106c45 -18 101 82 114 105l15 -8c-30 -54 -79 -130 -136 -113c-12 -26 -45 -77 -79 -65c-3 1 -6 3 -8 5c-28 -39 -57 -78 -85 -118c-7 -8 -14 -13 -26 -5l12 21l84 118c-14 23 -19 60 -10 86
c7 21 23 46 35 60c-1 8 0 16 0 23c1 25 12 51 23 70c47 77 99 36 103 -28l48 65c30 41 61 81 93 121c8 10 17 24 36 14zM46 247c-33 -49 -34 -104 -6 -139l67 92c8 44 -10 116 -61 47zM11 9c18 9 39 33 49 59c-5 2 -10 5 -15 8l-26 -36l-17 -23c2 -4 5 -7 9 -8zM16 110
c-14 -13 -21 -41 -20 -65c10 15 22 31 33 46c-5 6 -10 12 -13 19zM57 92l11 -6c8 16 15 33 21 51c-11 -15 -22 -30 -32 -45z" />
    <glyph glyph-name="ugrave" unicode="&#xf9;" horiz-adv-x="360" 
d="M360 181l15 -8c-38 -68 -92 -178 -163 -254c-30 -29 -70 -21 -91 16c-19 32 -17 68 -9 103c6 26 3 17 15 54c-23 -30 -50 -59 -78 -82c-17 -14 -38 -19 -58 -8c-20 10 -29 29 -29 51c0 69 29 126 71 178c8 10 18 12 31 2c-29 -66 -70 -127 -70 -196c1 -26 18 -34 37 -17
c25 21 48 44 68 69c35 48 67 98 101 147c8 13 18 21 34 14c3 -2 6 -13 4 -18c-8 -20 -16 -40 -25 -60c-29 -66 -50 -105 -63 -177c-4 -19 -2 -41 3 -60c6 -22 24 -25 40 -11c66 55 164 250 167 257zM145 294c-18 20 -35 40 -52 60c-13 20 17 22 27 12c20 -20 38 -42 56 -63
c3 -3 6 -10 4 -12c-8 -15 -27 -5 -35 3z" />
    <glyph glyph-name="uacute" unicode="&#xfa;" horiz-adv-x="360" 
d="M360 181l15 -8c-38 -68 -92 -178 -163 -254c-30 -29 -70 -21 -91 16c-19 32 -17 68 -9 103c6 26 3 17 15 54c-23 -30 -50 -59 -78 -82c-17 -14 -38 -19 -58 -8c-20 10 -29 29 -29 51c0 69 29 126 71 178c8 10 18 12 31 2c-29 -66 -70 -127 -70 -196c1 -26 18 -34 37 -17
c25 21 48 44 68 69c35 48 67 98 101 147c8 13 18 21 34 14c3 -2 6 -13 4 -18c-8 -20 -16 -40 -25 -60c-29 -66 -50 -105 -63 -177c-4 -19 -2 -41 3 -60c6 -22 24 -25 40 -11c66 55 164 250 167 257zM116 305c30 30 55 52 78 70c12 6 42 -3 19 -23l-72 -57
c-14 -10 -51 -10 -25 10z" />
    <glyph glyph-name="ucircumflex" unicode="&#xfb;" horiz-adv-x="360" 
d="M360 181l15 -8c-38 -68 -92 -178 -163 -254c-30 -29 -70 -21 -91 16c-19 32 -17 68 -9 103c6 26 3 17 15 54c-23 -30 -50 -59 -78 -82c-17 -14 -38 -19 -58 -8c-20 10 -29 29 -29 51c0 69 29 126 71 178c8 10 18 12 31 2c-29 -66 -70 -127 -70 -196c1 -26 18 -34 37 -17
c25 21 48 44 68 69c35 48 67 98 101 147c8 13 18 21 34 14c3 -2 6 -13 4 -18c-8 -20 -16 -40 -25 -60c-29 -66 -50 -105 -63 -177c-4 -19 -2 -41 3 -60c6 -22 24 -25 40 -11c66 55 164 250 167 257zM149 341c-15 -16 -28 -31 -41 -46s-38 -15 -18 10c15 19 30 39 46 56
c12 13 28 10 36 -5c10 -19 27 -39 35 -58c6 -28 -19 -20 -23 -14c-14 19 -26 38 -35 57z" />
    <glyph glyph-name="udieresis" unicode="&#xfc;" horiz-adv-x="360" 
d="M360 181l15 -8c-38 -68 -92 -178 -163 -254c-30 -29 -70 -21 -91 16c-19 32 -17 68 -9 103c6 26 3 17 15 54c-23 -30 -50 -59 -78 -82c-17 -14 -38 -19 -58 -8c-20 10 -29 29 -29 51c0 69 29 126 71 178c8 10 18 12 31 2c-29 -66 -70 -127 -70 -196c1 -26 18 -34 37 -17
c25 21 48 44 68 69c35 48 67 98 101 147c8 13 18 21 34 14c3 -2 6 -13 4 -18c-8 -20 -16 -40 -25 -60c-29 -66 -50 -105 -63 -177c-4 -19 -2 -41 3 -60c6 -22 24 -25 40 -11c66 55 164 250 167 257zM156 300c9 16 11 29 31 36c16 2 17 -10 13 -21c-4 -8 -9 -16 -16 -23
c-9 -12 -37 -11 -28 8zM90 300c9 16 11 29 31 36c16 2 17 -10 13 -21c-4 -8 -9 -16 -16 -23c-9 -12 -37 -11 -28 8z" />
    <glyph glyph-name="yacute" unicode="&#xfd;" horiz-adv-x="346" 
d="M29 20c36 26 62 65 87 101c37 54 68 112 101 168c16 20 36 -7 15 -41c-53 -110 -91 -233 -129 -352c121 43 228 252 243 285c3 -2 12 -4 16 -6c-81 -155 -158 -263 -267 -303c-23 -63 -51 -134 -95 -186c-45 -51 -90 -100 -154 -61c-30 19 -42 50 -35 84
c11 56 49 91 96 119c42 25 103 43 150 55c25 60 44 140 65 210c-16 -18 -30 -38 -47 -55c-16 -16 -32 -32 -51 -43c-26 -16 -49 -4 -56 26c-8 37 -2 73 10 108c17 44 39 87 59 130c3 6 7 14 13 16c7 3 18 4 25 2c10 -4 9 -14 4 -23c-14 -26 -27 -52 -42 -78
c-22 -36 -79 -208 -8 -156zM54 -136c-40 -15 -88 -28 -127 -45c-29 -13 -54 -33 -71 -60c-11 -17 -19 -35 -24 -54c-7 -27 3 -52 22 -63c83 -47 185 167 200 222zM126 303c30 30 55 52 78 70c12 6 42 -3 19 -23l-72 -57c-14 -10 -51 -10 -25 10z" />
    <glyph glyph-name="ydieresis" unicode="&#xff;" horiz-adv-x="346" 
d="M29 20c36 26 62 65 87 101c37 54 68 112 101 168c16 20 36 -7 15 -41c-53 -110 -91 -233 -129 -352c121 43 228 252 243 285c3 -2 12 -4 16 -6c-81 -155 -158 -263 -267 -303c-23 -63 -51 -134 -95 -186c-45 -51 -90 -100 -154 -61c-30 19 -42 50 -35 84
c11 56 49 91 96 119c42 25 103 43 150 55c25 60 44 140 65 210c-16 -18 -30 -38 -47 -55c-16 -16 -32 -32 -51 -43c-26 -16 -49 -4 -56 26c-8 37 -2 73 10 108c17 44 39 87 59 130c3 6 7 14 13 16c7 3 18 4 25 2c10 -4 9 -14 4 -23c-14 -26 -27 -52 -42 -78
c-22 -36 -79 -208 -8 -156zM54 -136c-40 -15 -88 -28 -127 -45c-29 -13 -54 -33 -71 -60c-11 -17 -19 -35 -24 -54c-7 -27 3 -52 22 -63c83 -47 185 167 200 222zM165 319c9 16 11 29 31 36c16 2 17 -10 13 -21c-4 -8 -9 -16 -16 -23c-9 -12 -37 -11 -28 8zM99 319
c9 16 11 29 31 36c16 2 17 -10 13 -21c-4 -8 -9 -16 -16 -23c-9 -12 -37 -11 -28 8z" />
    <glyph glyph-name="Ydieresis" unicode="&#x178;" horiz-adv-x="710" 
d="M62 -255c-62 22 -72 94 -54 134c26 57 74 84 133 93c97 9 172 -37 254 -69c104 120 168 270 238 413c-70 -88 -157 -237 -275 -250c-41 -1 -69 20 -78 60c-8 28 -7 58 3 85c16 44 32 88 53 129c23 47 88 146 94 180c-27 -20 -53 -40 -79 -61c-55 -44 -110 -88 -164 -133
c-37 -33 -70 -70 -91 -116c-8 -18 -11 -35 2 -51c-15 -8 -25 -4 -32 10c-8 17 -4 33 2 50c18 43 48 79 83 109c63 51 128 99 191 150c42 34 84 70 126 105c4 3 9 8 13 8c17 0 32 -7 22 -24c-20 -41 -42 -81 -62 -122c-38 -74 -76 -149 -112 -225c-14 -31 -21 -66 -13 -102
c7 -31 30 -44 60 -32c123 54 241 248 308 348c32 48 60 98 91 146c13 22 37 66 65 45l-27 -51c-61 -124 -121 -249 -183 -373c-44 -87 -87 -173 -146 -251c-17 -22 -36 -42 -55 -66c75 -40 153 -73 239 -68c53 3 100 73 87 95c9 9 26 0 26 -17c2 -42 -45 -87 -94 -99
c-47 -10 -93 -6 -145 9c-38 10 -101 41 -136 58c-60 -42 -119 -90 -190 -112c-53 -18 -102 -23 -154 -5zM372 -120c-64 33 -123 63 -191 69c-54 4 -98 -16 -130 -58c-24 -31 -26 -66 -7 -100c19 -32 52 -40 86 -37c96 9 167 66 242 126zM674 668c9 16 11 29 31 36
c16 2 17 -10 13 -21c-4 -8 -9 -16 -16 -23c-9 -12 -37 -11 -28 8zM608 668c9 16 11 29 31 36c16 2 17 -10 13 -21c-4 -8 -9 -16 -16 -23c-9 -12 -37 -11 -28 8z" />
    <glyph glyph-name="scaron" unicode="&#x161;" horiz-adv-x="219" 
d="M219 181l15 -8c-45 -89 -128 -205 -230 -210c-32 -1 -50 4 -73 32c10 17 16 8 29 -2c20 -17 41 -10 53 31c23 75 -29 144 -15 213c5 21 21 28 35 19c4 -3 9 -11 7 -15c-27 -82 54 -156 -5 -253c78 29 135 97 184 193zM41 315c15 19 23 34 35 50c12 15 39 9 21 -14
c-15 -21 -30 -42 -46 -62c-9 -9 -21 -8 -28 5c-9 19 -20 39 -28 58c-3 8 -7 22 4 24c10 3 20 -4 23 -16c4 -14 13 -32 19 -45z" />
    </font>
</defs>
</svg>
